请选择 进入手机版 | 继续访问电脑版

自购原抓音乐圈:只有自购、合购、原抓级高解析(hires、sacd、dsd)正版音乐资源分享!【点我打开
广告

[电子音乐] Bonobo The North Borders Tour. — Live. [2014, Downtempo, Trip-Hop, DVD9]

[复制链接]
嗨音社 发表于 2020-10-30 21:22:02 | 显示全部楼层 |阅读模式 打印 上一主题 下一主题
Bonobo The North Borders Tour. — Live.
Страна: UK
Жанр: Downtempo, Trip-Hop
Продолжительность: 01:26:32
Год выпуска: 2014 г.
Лейбл: Ninja Tune
Треклист:
01 Intro / Cirrus
02 Sapphire
03 Towers
04 Stay The Same
05 Prelude / Kiara
06 Ten Tigers
07 Kong
08 Ketto
09 Emkay
10 Recurring
11 We Could Forever
12 El Toro / Solos
13 Transits
14 Know You
15 Pieces16 The Keeper
Extras:
17 Transits, Glastonbury Festival
18 First Fires, Roundhouse
19 Heaven For The Sinner, Roundhouse
20 Time Lapse At Pula Arena, Dimensions Festival
Разбивка на главы по трекам: есть
Качество : DVD9
Формат: DVD video
Видео кодек: MPEG2
Аудио кодек: AC3
Видео: MPEG2, 720:576, 16:9, 9000kbps, 25fps
Аудио: AC3, 192kbps, 48,0kHz, 2ch
DVDinfo

Общее
Полное имя                               : H:\Video\Music\Bonobo ‎– The North Borders Tour Live (2014)\VIDEO_TS.BUP
Формат                                   : DVD Video
Профиль формата                          : Menu
Размер файла                             : 16,0 Кбайт
Режим общего битрейта                    : Переменный
Видео
Идентификатор                            : 224 (0xE0)
Формат                                   : MPEG Video
Версия формата                           : Version 2
Вид битрейта                             : Переменный
Ширина                                   : 720 пикселей
Высота                                   : 576 пикселей
Соотношение сторон                       : 16:9
Частота кадров                           : 25,000 кадров/сек
Стандарт вещания                         : PAL
Метод сжатия                             : С потерями
Текст
Формат                                   : RLE
Формат/Информация                        : Run-length encoding
Битовая глубина                          : 2 бит
Общее
Полное имя                               : H:\Video\Music\Bonobo ‎– The North Borders Tour Live (2014)\VIDEO_TS.IFO
Формат                                   : DVD Video
Профиль формата                          : Menu
Размер файла                             : 16,0 Кбайт
Режим общего битрейта                    : Переменный
Видео
Идентификатор                            : 224 (0xE0)
Формат                                   : MPEG Video
Версия формата                           : Version 2
Вид битрейта                             : Переменный
Ширина                                   : 720 пикселей
Высота                                   : 576 пикселей
Соотношение сторон                       : 16:9
Частота кадров                           : 25,000 кадров/сек
Стандарт вещания                         : PAL
Метод сжатия                             : С потерями
Текст
Формат                                   : RLE
Формат/Информация                        : Run-length encoding
Битовая глубина                          : 2 бит
Общее
Полное имя                               : H:\Video\Music\Bonobo ‎– The North Borders Tour Live (2014)\VIDEO_TS.VOB
Формат                                   : MPEG-PS
Размер файла                             : 154 Кбайт
Продолжительность                        : 520 мс.
Общий поток                              : 2426 Кбит/сек
Видео
Идентификатор                            : 224 (0xE0)
Формат                                   : MPEG Video
Версия формата                           : Version 2
Профиль формата                          : Main@Main
Параметр BVOP формата                    : Да
Параметр матрицы формата                 : Выборочная
Продолжительность                        : 520 мс.
Максимальный битрейт                     : 2000 Кбит/сек
Ширина                                   : 720 пикселей
Высота                                   : 576 пикселей
Соотношение сторон                       : 4:3
Частота кадров                           : 25,000 кадров/сек
Стандарт вещания                         : PAL
Цветовое пространство                    : YUV
Субдискретизация насыщенности            : 4:2:0
Битовая глубина                          : 8 бит
Тип развёртки                            : Чересстрочная
Порядок развёртки                        : Верхнее поле первое
Метод сжатия                             : С потерями
Временной код первого кадра              : 00:00:00:00
Оригинал временного кода                 : Group of pictures header
Текст
Идентификатор                            : 189 (0xBD)-32 (0x20)
Формат                                   : RLE
Формат/Информация                        : Run-length encoding
Режим смешивания                         : DVD-Video
Задержка видео                           : -80 мс.
Меню
Общее
Полное имя                               : H:\Video\Music\Bonobo ‎– The North Borders Tour Live (2014)\VTS_01_0.BUP
Формат                                   : DVD Video
Профиль формата                          : Program
Размер файла                             : 76,0 Кбайт
Продолжительность                        : 1 ч. 26 м.
Режим общего битрейта                    : Переменный
Общий поток                              : 120 бит/сек
Видео
Идентификатор                            : 224 (0xE0)
Формат                                   : MPEG Video
Версия формата                           : Version 2
Продолжительность                        : 1 ч. 26 м.
Вид битрейта                             : Переменный
Ширина                                   : 720 пикселей
Высота                                   : 576 пикселей
Соотношение сторон                       : 16:9
Частота кадров                           : 25,000 кадров/сек
Стандарт вещания                         : PAL
Метод сжатия                             : С потерями
Аудио
Идентификатор                            : 128 (0x80)
Формат                                   : AC-3
Формат/Информация                        : Audio Coding 3
Продолжительность                        : 1 ч. 26 м.
Каналы                                   : 2 канала
Частота                                  : 48,0 КГц
Метод сжатия                             : С потерями
Меню #1
Продолжительность                        : 1 ч. 26 м.
00:00:00.000                             : Chapter 1
00:07:42.240                             : Chapter 2
00:12:19.680                             : Chapter 3
00:18:50.400                             : Chapter 4
00:24:22.080                             : Chapter 5
00:29:27.840                             : Chapter 6
00:32:21.120                             : Chapter 7
00:35:30.720                             : Chapter 8
00:41:06.720                             : Chapter 9
00:45:09.120                             : Chapter 10
00:48:28.320                             : Chapter 11
00:53:05.280                             : Chapter 12
01:02:29.280                             : Chapter 13
01:06:48.480                             : Chapter 14
01:14:03.840                             : Chapter 15
01:19:00.480                             : Chapter 16
List (Audio)                             : 0
Меню #2
Продолжительность                        : 1 ч. 26 м.
00:00:00.000                             : Chapter 1
00:07:42.240                             : Chapter 2
00:12:19.680                             : Chapter 3
00:18:50.400                             : Chapter 4
00:24:22.080                             : Chapter 5
00:29:27.840                             : Chapter 6
00:32:21.120                             : Chapter 7
00:35:30.720                             : Chapter 8
00:41:06.720                             : Chapter 9
00:45:09.120                             : Chapter 10
00:48:28.320                             : Chapter 11
00:53:05.280                             : Chapter 12
01:02:29.280                             : Chapter 13
01:06:48.480                             : Chapter 14
01:14:03.840                             : Chapter 15
01:19:00.480                             : Chapter 16
List (Audio)                             : 0
Общее
Полное имя                               : H:\Video\Music\Bonobo ‎– The North Borders Tour Live (2014)\VTS_01_0.IFO
Формат                                   : DVD Video
Профиль формата                          : Program
Размер файла                             : 76,0 Кбайт
Продолжительность                        : 1 ч. 26 м.
Режим общего битрейта                    : Переменный
Общий поток                              : 120 бит/сек
Видео
Идентификатор                            : 224 (0xE0)
Формат                                   : MPEG Video
Версия формата                           : Version 2
Продолжительность                        : 1 ч. 26 м.
Вид битрейта                             : Переменный
Ширина                                   : 720 пикселей
Высота                                   : 576 пикселей
Соотношение сторон                       : 16:9
Частота кадров                           : 25,000 кадров/сек
Стандарт вещания                         : PAL
Метод сжатия                             : С потерями
Аудио
Идентификатор                            : 128 (0x80)
Формат                                   : AC-3
Формат/Информация                        : Audio Coding 3
Продолжительность                        : 1 ч. 26 м.
Каналы                                   : 2 канала
Частота                                  : 48,0 КГц
Метод сжатия                             : С потерями
Меню #1
Продолжительность                        : 1 ч. 26 м.
00:00:00.000                             : Chapter 1
00:07:42.240                             : Chapter 2
00:12:19.680                             : Chapter 3
00:18:50.400                             : Chapter 4
00:24:22.080                             : Chapter 5
00:29:27.840                             : Chapter 6
00:32:21.120                             : Chapter 7
00:35:30.720                             : Chapter 8
00:41:06.720                             : Chapter 9
00:45:09.120                             : Chapter 10
00:48:28.320                             : Chapter 11
00:53:05.280                             : Chapter 12
01:02:29.280                             : Chapter 13
01:06:48.480                             : Chapter 14
01:14:03.840                             : Chapter 15
01:19:00.480                             : Chapter 16
List (Audio)                             : 0
Меню #2
Продолжительность                        : 1 ч. 26 м.
00:00:00.000                             : Chapter 1
00:07:42.240                             : Chapter 2
00:12:19.680                             : Chapter 3
00:18:50.400                             : Chapter 4
00:24:22.080                             : Chapter 5
00:29:27.840                             : Chapter 6
00:32:21.120                             : Chapter 7
00:35:30.720                             : Chapter 8
00:41:06.720                             : Chapter 9
00:45:09.120                             : Chapter 10
00:48:28.320                             : Chapter 11
00:53:05.280                             : Chapter 12
01:02:29.280                             : Chapter 13
01:06:48.480                             : Chapter 14
01:14:03.840                             : Chapter 15
01:19:00.480                             : Chapter 16
List (Audio)                             : 0
Общее
Полное имя                               : H:\Video\Music\Bonobo ‎– The North Borders Tour Live (2014)\VTS_01_0.VOB
Формат                                   : MPEG-PS
Размер файла                             : 200 Мбайт
Продолжительность                        : 56 с.
Режим общего битрейта                    : Переменный
Общий поток                              : 29,5 Мбит/сек
Видео
Идентификатор                            : 224 (0xE0)
Формат                                   : MPEG Video
Версия формата                           : Version 2
Профиль формата                          : Main@Main
Параметр BVOP формата                    : Да
Параметр матрицы формата                 : По умолчанию
Параметр GOP формата                     : M=3, N=12
Продолжительность                        : 56 с.
Вид битрейта                             : Переменный
Битрейт                                  : 28,7 Мбит/сек
Максимальный битрейт                     : 9000 Кбит/сек
Ширина                                   : 720 пикселей
Высота                                   : 576 пикселей
Соотношение сторон                       : 16:9
Частота кадров                           : 25,000 кадров/сек
Стандарт вещания                         : PAL
Цветовое пространство                    : YUV
Субдискретизация насыщенности            : 4:2:0
Битовая глубина                          : 8 бит
Тип развёртки                            : Прогрессивная
Метод сжатия                             : С потерями
Бит/(Пиксели*Кадры)                      : 2.770
Временной код первого кадра              : 00:01:13:21
Оригинал временного кода                 : Group of pictures header
Размер потока                            : 195 Мбайт (97%)
Аудио
Идентификатор                            : 189 (0xBD)-128 (0x80)
Формат                                   : AC-3
Формат/Информация                        : Audio Coding 3
Расширение режима                        : CM (complete main)
Параметр Endianness формата              : Big
Режим смешивания                         : DVD-Video
Продолжительность                        : 56 с.
Вид битрейта                             : Постоянный
Битрейт                                  : 192 Кбит/сек
Каналы                                   : 2 канала
Расположение каналов                     : Front: L R
Частота                                  : 48,0 КГц
Битовая глубина                          : 16 бит
Метод сжатия                             : С потерями
Задержка видео                           : -80 мс.
Размер потока                            : 1,30 Мбайт (1%)
Текст #1
Идентификатор                            : 189 (0xBD)-32 (0x20)
Формат                                   : RLE
Формат/Информация                        : Run-length encoding
Режим смешивания                         : DVD-Video
Задержка видео                           : -80 мс.
Текст #2
Идентификатор                            : 189 (0xBD)-33 (0x21)
Формат                                   : RLE
Формат/Информация                        : Run-length encoding
Режим смешивания                         : DVD-Video
Задержка видео                           : -80 мс.
Меню
Общее
Полное имя                               : H:\Video\Music\Bonobo ‎– The North Borders Tour Live (2014)\VTS_01_1.VOB
Формат                                   : MPEG-PS
Размер файла                             : 1024 Мбайт
Продолжительность                        : 17 м.
Режим общего битрейта                    : Переменный
Общий поток                              : 8372 Кбит/сек
Видео
Идентификатор                            : 224 (0xE0)
Формат                                   : MPEG Video
Версия формата                           : Version 2
Профиль формата                          : Main@Main
Параметр BVOP формата                    : Да
Параметр матрицы формата                 : По умолчанию
Параметр GOP формата                     : M=3, N=12
Продолжительность                        : 17 м.
Вид битрейта                             : Переменный
Битрейт                                  : 8013 Кбит/сек
Максимальный битрейт                     : 9000 Кбит/сек
Ширина                                   : 720 пикселей
Высота                                   : 576 пикселей
Соотношение сторон                       : 16:9
Частота кадров                           : 25,000 кадров/сек
Стандарт вещания                         : PAL
Цветовое пространство                    : YUV
Субдискретизация насыщенности            : 4:2:0
Битовая глубина                          : 8 бит
Тип развёртки                            : Чересстрочная
Порядок развёртки                        : Верхнее поле первое
Метод сжатия                             : С потерями
Бит/(Пиксели*Кадры)                      : 0.773
Временной код первого кадра              : 00:00:00:00
Оригинал временного кода                 : Group of pictures header
Размер потока                            : 980 Мбайт (96%)
Аудио
Идентификатор                            : 189 (0xBD)-128 (0x80)
Формат                                   : AC-3
Формат/Информация                        : Audio Coding 3
Расширение режима                        : CM (complete main)
Параметр Endianness формата              : Big
Режим смешивания                         : DVD-Video
Продолжительность                        : 17 м.
Вид битрейта                             : Постоянный
Битрейт                                  : 192 Кбит/сек
Каналы                                   : 2 канала
Расположение каналов                     : Front: L R
Частота                                  : 48,0 КГц
Битовая глубина                          : 16 бит
Метод сжатия                             : С потерями
Задержка видео                           : -80 мс.
Размер потока                            : 23,5 Мбайт (2%)
Меню
Общее
Полное имя                               : H:\Video\Music\Bonobo ‎– The North Borders Tour Live (2014)\VTS_01_2.VOB
Формат                                   : MPEG-PS
Размер файла                             : 1024 Мбайт
Продолжительность                        : 17 м.
Режим общего битрейта                    : Переменный
Общий поток                              : 8315 Кбит/сек
Видео
Идентификатор                            : 224 (0xE0)
Формат                                   : MPEG Video
Версия формата                           : Version 2
Профиль формата                          : Main@Main
Параметр BVOP формата                    : Да
Параметр матрицы формата                 : По умолчанию
Параметр GOP формата                     : M=3, N=12
Продолжительность                        : 17 м.
Вид битрейта                             : Переменный
Битрейт                                  : 7957 Кбит/сек
Максимальный битрейт                     : 9000 Кбит/сек
Ширина                                   : 720 пикселей
Высота                                   : 576 пикселей
Соотношение сторон                       : 16:9
Частота кадров                           : 25,000 кадров/сек
Стандарт вещания                         : PAL
Цветовое пространство                    : YUV
Субдискретизация насыщенности            : 4:2:0
Битовая глубина                          : 8 бит
Тип развёртки                            : Чересстрочная
Порядок развёртки                        : Верхнее поле первое
Метод сжатия                             : С потерями
Бит/(Пиксели*Кадры)                      : 0.767
Временной код первого кадра              : 00:17:06:06
Оригинал временного кода                 : Group of pictures header
Размер потока                            : 979 Мбайт (96%)
Аудио
Идентификатор                            : 189 (0xBD)-128 (0x80)
Формат                                   : AC-3
Формат/Информация                        : Audio Coding 3
Расширение режима                        : CM (complete main)
Параметр Endianness формата              : Big
Режим смешивания                         : DVD-Video
Продолжительность                        : 17 м.
Вид битрейта                             : Постоянный
Битрейт                                  : 192 Кбит/сек
Каналы                                   : 2 канала
Расположение каналов                     : Front: L R
Частота                                  : 48,0 КГц
Битовая глубина                          : 16 бит
Метод сжатия                             : С потерями
Задержка видео                           : -496 мс.
Размер потока                            : 23,6 Мбайт (2%)
Меню
Общее
Полное имя                               : H:\Video\Music\Bonobo ‎– The North Borders Tour Live (2014)\VTS_01_3.VOB
Формат                                   : MPEG-PS
Размер файла                             : 1024 Мбайт
Продолжительность                        : 17 м.
Режим общего битрейта                    : Переменный
Общий поток                              : 8267 Кбит/сек
Видео
Идентификатор                            : 224 (0xE0)
Формат                                   : MPEG Video
Версия формата                           : Version 2
Профиль формата                          : Main@Main
Параметр BVOP формата                    : Да
Параметр матрицы формата                 : По умолчанию
Параметр GOP формата                     : M=3, N=12
Продолжительность                        : 17 м.
Вид битрейта                             : Переменный
Битрейт                                  : 7910 Кбит/сек
Максимальный битрейт                     : 9000 Кбит/сек
Ширина                                   : 720 пикселей
Высота                                   : 576 пикселей
Соотношение сторон                       : 16:9
Частота кадров                           : 25,000 кадров/сек
Стандарт вещания                         : PAL
Цветовое пространство                    : YUV
Субдискретизация насыщенности            : 4:2:0
Битовая глубина                          : 8 бит
Тип развёртки                            : Чересстрочная
Порядок развёртки                        : Верхнее поле первое
Метод сжатия                             : С потерями
Бит/(Пиксели*Кадры)                      : 0.763
Временной код первого кадра              : 00:34:19:05
Оригинал временного кода                 : Group of pictures header
Размер потока                            : 980 Мбайт (96%)
Аудио
Идентификатор                            : 189 (0xBD)-128 (0x80)
Формат                                   : AC-3
Формат/Информация                        : Audio Coding 3
Расширение режима                        : CM (complete main)
Параметр Endianness формата              : Big
Режим смешивания                         : DVD-Video
Продолжительность                        : 17 м.
Вид битрейта                             : Постоянный
Битрейт                                  : 192 Кбит/сек
Каналы                                   : 2 канала
Расположение каналов                     : Front: L R
Частота                                  : 48,0 КГц
Битовая глубина                          : 16 бит
Метод сжатия                             : С потерями
Задержка видео                           : -496 мс.
Размер потока                            : 23,8 Мбайт (2%)
Меню
Общее
Полное имя                               : H:\Video\Music\Bonobo ‎– The North Borders Tour Live (2014)\VTS_01_4.VOB
Формат                                   : MPEG-PS
Размер файла                             : 1024 Мбайт
Продолжительность                        : 17 м.
Режим общего битрейта                    : Переменный
Общий поток                              : 8395 Кбит/сек
Видео
Идентификатор                            : 224 (0xE0)
Формат                                   : MPEG Video
Версия формата                           : Version 2
Профиль формата                          : Main@Main
Параметр BVOP формата                    : Да
Параметр матрицы формата                 : По умолчанию
Параметр GOP формата                     : M=3, N=12
Продолжительность                        : 17 м.
Вид битрейта                             : Переменный
Битрейт                                  : 8036 Кбит/сек
Максимальный битрейт                     : 9000 Кбит/сек
Ширина                                   : 720 пикселей
Высота                                   : 576 пикселей
Соотношение сторон                       : 16:9
Частота кадров                           : 25,000 кадров/сек
Стандарт вещания                         : PAL
Цветовое пространство                    : YUV
Субдискретизация насыщенности            : 4:2:0
Битовая глубина                          : 8 бит
Тип развёртки                            : Чересстрочная
Порядок развёртки                        : Верхнее поле первое
Метод сжатия                             : С потерями
Бит/(Пиксели*Кадры)                      : 0.775
Временной код первого кадра              : 00:51:38:10
Оригинал временного кода                 : Group of pictures header
Размер потока                            : 979 Мбайт (96%)
Аудио
Идентификатор                            : 189 (0xBD)-128 (0x80)
Формат                                   : AC-3
Формат/Информация                        : Audio Coding 3
Расширение режима                        : CM (complete main)
Параметр Endianness формата              : Big
Режим смешивания                         : DVD-Video
Продолжительность                        : 17 м.
Вид битрейта                             : Постоянный
Битрейт                                  : 192 Кбит/сек
Каналы                                   : 2 канала
Расположение каналов                     : Front: L R
Частота                                  : 48,0 КГц
Битовая глубина                          : 16 бит
Метод сжатия                             : С потерями
Задержка видео                           : -720 мс.
Размер потока                            : 23,4 Мбайт (2%)
Меню
Общее
Полное имя                               : H:\Video\Music\Bonobo ‎– The North Borders Tour Live (2014)\VTS_01_5.VOB
Формат                                   : MPEG-PS
Размер файла                             : 1024 Мбайт
Продолжительность                        : 17 м.
Режим общего битрейта                    : Переменный
Общий поток                              : 8302 Кбит/сек
Видео
Идентификатор                            : 224 (0xE0)
Формат                                   : MPEG Video
Версия формата                           : Version 2
Профиль формата                          : Main@Main
Параметр BVOP формата                    : Да
Параметр матрицы формата                 : По умолчанию
Параметр GOP формата                     : M=3, N=12
Продолжительность                        : 17 м.
Вид битрейта                             : Переменный
Битрейт                                  : 7945 Кбит/сек
Максимальный битрейт                     : 9000 Кбит/сек
Ширина                                   : 720 пикселей
Высота                                   : 576 пикселей
Соотношение сторон                       : 16:9
Частота кадров                           : 25,000 кадров/сек
Стандарт вещания                         : PAL
Цветовое пространство                    : YUV
Субдискретизация насыщенности            : 4:2:0
Битовая глубина                          : 8 бит
Тип развёртки                            : Чересстрочная
Порядок развёртки                        : Верхнее поле первое
Метод сжатия                             : С потерями
Бит/(Пиксели*Кадры)                      : 0.766
Временной код первого кадра              : 01:08:41:07
Оригинал временного кода                 : Group of pictures header
Размер потока                            : 979 Мбайт (96%)
Аудио
Идентификатор                            : 189 (0xBD)-128 (0x80)
Формат                                   : AC-3
Формат/Информация                        : Audio Coding 3
Расширение режима                        : CM (complete main)
Параметр Endianness формата              : Big
Режим смешивания                         : DVD-Video
Продолжительность                        : 17 м.
Вид битрейта                             : Постоянный
Битрейт                                  : 192 Кбит/сек
Каналы                                   : 2 канала
Расположение каналов                     : Front: L R
Частота                                  : 48,0 КГц
Битовая глубина                          : 16 бит
Метод сжатия                             : С потерями
Задержка видео                           : -560 мс.
Размер потока                            : 23,7 Мбайт (2%)
Меню
Общее
Полное имя                               : H:\Video\Music\Bonobo ‎– The North Borders Tour Live (2014)\VTS_01_6.VOB
Формат                                   : MPEG-PS
Размер файла                             : 32,5 Мбайт
Продолжительность                        : 36 с.
Режим общего битрейта                    : Переменный
Общий поток                              : 7413 Кбит/сек
Видео
Идентификатор                            : 224 (0xE0)
Формат                                   : MPEG Video
Версия формата                           : Version 2
Профиль формата                          : Main@Main
Параметр BVOP формата                    : Да
Параметр матрицы формата                 : По умолчанию
Параметр GOP формата                     : M=3, N=12
Продолжительность                        : 36 с.
Вид битрейта                             : Переменный
Битрейт                                  : 7073 Кбит/сек
Максимальный битрейт                     : 9000 Кбит/сек
Ширина                                   : 720 пикселей
Высота                                   : 576 пикселей
Соотношение сторон                       : 16:9
Частота кадров                           : 25,000 кадров/сек
Стандарт вещания                         : PAL
Цветовое пространство                    : YUV
Субдискретизация насыщенности            : 4:2:0
Битовая глубина                          : 8 бит
Тип развёртки                            : Прогрессивная
Метод сжатия                             : С потерями
Бит/(Пиксели*Кадры)                      : 0.682
Временной код первого кадра              : 00:01:32:04
Оригинал временного кода                 : Group of pictures header
Размер потока                            : 30,7 Мбайт (94%)
Аудио
Идентификатор                            : 189 (0xBD)-128 (0x80)
Формат                                   : AC-3
Формат/Информация                        : Audio Coding 3
Расширение режима                        : CM (complete main)
Параметр Endianness формата              : Big
Режим смешивания                         : DVD-Video
Продолжительность                        : 36 с.
Вид битрейта                             : Постоянный
Битрейт                                  : 192 Кбит/сек
Каналы                                   : 2 канала
Расположение каналов                     : Front: L R
Частота                                  : 48,0 КГц
Битовая глубина                          : 16 бит
Метод сжатия                             : С потерями
Задержка видео                           : -400 мс.
Размер потока                            : 863 Кбайт (3%)
Меню
Общее
Полное имя                               : H:\Video\Music\Bonobo ‎– The North Borders Tour Live (2014)\VTS_02_0.BUP
Формат                                   : DVD Video
Профиль формата                          : Program
Размер файла                             : 20,0 Кбайт
Продолжительность                        : 4 м. 45 с.
Режим общего битрейта                    : Переменный
Общий поток                              : 574 бит/сек
Видео
Идентификатор                            : 224 (0xE0)
Формат                                   : MPEG Video
Версия формата                           : Version 2
Продолжительность                        : 4 м. 45 с.
Вид битрейта                             : Переменный
Ширина                                   : 720 пикселей
Высота                                   : 576 пикселей
Соотношение сторон                       : 16:9
Частота кадров                           : 25,000 кадров/сек
Стандарт вещания                         : PAL
Метод сжатия                             : С потерями
Аудио
Идентификатор                            : 128 (0x80)
Формат                                   : AC-3
Формат/Информация                        : Audio Coding 3
Продолжительность                        : 4 м. 45 с.
Каналы                                   : 2 канала
Частота                                  : 48,0 КГц
Метод сжатия                             : С потерями
Меню
Продолжительность                        : 4 м. 45 с.
00:00:00.000                             : Chapter 1
List (Audio)                             : 0
Общее
Полное имя                               : H:\Video\Music\Bonobo ‎– The North Borders Tour Live (2014)\VTS_02_0.IFO
Формат                                   : DVD Video
Профиль формата                          : Program
Размер файла                             : 20,0 Кбайт
Продолжительность                        : 4 м. 45 с.
Режим общего битрейта                    : Переменный
Общий поток                              : 574 бит/сек
Видео
Идентификатор                            : 224 (0xE0)
Формат                                   : MPEG Video
Версия формата                           : Version 2
Продолжительность                        : 4 м. 45 с.
Вид битрейта                             : Переменный
Ширина                                   : 720 пикселей
Высота                                   : 576 пикселей
Соотношение сторон                       : 16:9
Частота кадров                           : 25,000 кадров/сек
Стандарт вещания                         : PAL
Метод сжатия                             : С потерями
Аудио
Идентификатор                            : 128 (0x80)
Формат                                   : AC-3
Формат/Информация                        : Audio Coding 3
Продолжительность                        : 4 м. 45 с.
Каналы                                   : 2 канала
Частота                                  : 48,0 КГц
Метод сжатия                             : С потерями
Меню
Продолжительность                        : 4 м. 45 с.
00:00:00.000                             : Chapter 1
List (Audio)                             : 0
Общее
Полное имя                               : H:\Video\Music\Bonobo ‎– The North Borders Tour Live (2014)\VTS_02_0.VOB
Формат                                   : MPEG-PS
Размер файла                             : 154 Кбайт
Продолжительность                        : 520 мс.
Общий поток                              : 2426 Кбит/сек
Видео
Идентификатор                            : 224 (0xE0)
Формат                                   : MPEG Video
Версия формата                           : Version 2
Профиль формата                          : Main@Main
Параметр BVOP формата                    : Да
Параметр матрицы формата                 : Выборочная
Продолжительность                        : 520 мс.
Максимальный битрейт                     : 2000 Кбит/сек
Ширина                                   : 720 пикселей
Высота                                   : 576 пикселей
Соотношение сторон                       : 4:3
Частота кадров                           : 25,000 кадров/сек
Стандарт вещания                         : PAL
Цветовое пространство                    : YUV
Субдискретизация насыщенности            : 4:2:0
Битовая глубина                          : 8 бит
Тип развёртки                            : Чересстрочная
Порядок развёртки                        : Верхнее поле первое
Метод сжатия                             : С потерями
Временной код первого кадра              : 00:00:00:00
Оригинал временного кода                 : Group of pictures header
Текст
Идентификатор                            : 189 (0xBD)-32 (0x20)
Формат                                   : RLE
Формат/Информация                        : Run-length encoding
Режим смешивания                         : DVD-Video
Задержка видео                           : -80 мс.
Меню
Общее
Полное имя                               : H:\Video\Music\Bonobo ‎– The North Borders Tour Live (2014)\VTS_02_1.VOB
Формат                                   : MPEG-PS
Размер файла                             : 266 Мбайт
Продолжительность                        : 4 м. 45 с.
Режим общего битрейта                    : Переменный
Общий поток                              : 7812 Кбит/сек
Видео
Идентификатор                            : 224 (0xE0)
Формат                                   : MPEG Video
Версия формата                           : Version 2
Профиль формата                          : Main@Main
Параметр BVOP формата                    : Да
Параметр матрицы формата                 : По умолчанию
Параметр GOP формата                     : M=3, N=12
Продолжительность                        : 4 м. 45 с.
Вид битрейта                             : Переменный
Битрейт                                  : 7464 Кбит/сек
Максимальный битрейт                     : 8500 Кбит/сек
Ширина                                   : 720 пикселей
Высота                                   : 576 пикселей
Соотношение сторон                       : 16:9
Частота кадров                           : 25,000 кадров/сек
Стандарт вещания                         : PAL
Цветовое пространство                    : YUV
Субдискретизация насыщенности            : 4:2:0
Битовая глубина                          : 8 бит
Тип развёртки                            : Прогрессивная
Метод сжатия                             : С потерями
Бит/(Пиксели*Кадры)                      : 0.720
Временной код первого кадра              : 01:00:00:00
Оригинал временного кода                 : Group of pictures header
Размер потока                            : 254 Мбайт (96%)
Аудио
Идентификатор                            : 189 (0xBD)-128 (0x80)
Формат                                   : AC-3
Формат/Информация                        : Audio Coding 3
Расширение режима                        : CM (complete main)
Параметр Endianness формата              : Big
Режим смешивания                         : DVD-Video
Продолжительность                        : 4 м. 45 с.
Вид битрейта                             : Постоянный
Битрейт                                  : 192 Кбит/сек
Каналы                                   : 2 канала
Расположение каналов                     : Front: L R
Частота                                  : 48,0 КГц
Битовая глубина                          : 16 бит
Метод сжатия                             : С потерями
Задержка видео                           : -80 мс.
Размер потока                            : 6,54 Мбайт (2%)
Меню
Общее
Полное имя                               : H:\Video\Music\Bonobo ‎– The North Borders Tour Live (2014)\VTS_03_0.BUP
Формат                                   : DVD Video
Профиль формата                          : Program
Размер файла                             : 20,0 Кбайт
Продолжительность                        : 5 м. 7 с.
Режим общего битрейта                    : Переменный
Общий поток                              : 534 бит/сек
Видео
Идентификатор                            : 224 (0xE0)
Формат                                   : MPEG Video
Версия формата                           : Version 2
Продолжительность                        : 5 м. 7 с.
Вид битрейта                             : Переменный
Ширина                                   : 720 пикселей
Высота                                   : 576 пикселей
Соотношение сторон                       : 16:9
Частота кадров                           : 25,000 кадров/сек
Стандарт вещания                         : PAL
Метод сжатия                             : С потерями
Аудио
Идентификатор                            : 128 (0x80)
Формат                                   : AC-3
Формат/Информация                        : Audio Coding 3
Продолжительность                        : 5 м. 7 с.
Каналы                                   : 2 канала
Частота                                  : 48,0 КГц
Метод сжатия                             : С потерями
Меню
Продолжительность                        : 5 м. 7 с.
00:00:00.000                             : Chapter 1
List (Audio)                             : 0
Общее
Полное имя                               : H:\Video\Music\Bonobo ‎– The North Borders Tour Live (2014)\VTS_03_0.IFO
Формат                                   : DVD Video
Профиль формата                          : Program
Размер файла                             : 20,0 Кбайт
Продолжительность                        : 5 м. 7 с.
Режим общего битрейта                    : Переменный
Общий поток                              : 534 бит/сек
Видео
Идентификатор                            : 224 (0xE0)
Формат                                   : MPEG Video
Версия формата                           : Version 2
Продолжительность                        : 5 м. 7 с.
Вид битрейта                             : Переменный
Ширина                                   : 720 пикселей
Высота                                   : 576 пикселей
Соотношение сторон                       : 16:9
Частота кадров                           : 25,000 кадров/сек
Стандарт вещания                         : PAL
Метод сжатия                             : С потерями
Аудио
Идентификатор                            : 128 (0x80)
Формат                                   : AC-3
Формат/Информация                        : Audio Coding 3
Продолжительность                        : 5 м. 7 с.
Каналы                                   : 2 канала
Частота                                  : 48,0 КГц
Метод сжатия                             : С потерями
Меню
Продолжительность                        : 5 м. 7 с.
00:00:00.000                             : Chapter 1
List (Audio)                             : 0
Общее
Полное имя                               : H:\Video\Music\Bonobo ‎– The North Borders Tour Live (2014)\VTS_03_0.VOB
Формат                                   : MPEG-PS
Размер файла                             : 154 Кбайт
Продолжительность                        : 520 мс.
Общий поток                              : 2426 Кбит/сек
Видео
Идентификатор                            : 224 (0xE0)
Формат                                   : MPEG Video
Версия формата                           : Version 2
Профиль формата                          : Main@Main
Параметр BVOP формата                    : Да
Параметр матрицы формата                 : Выборочная
Продолжительность                        : 520 мс.
Максимальный битрейт                     : 2000 Кбит/сек
Ширина                                   : 720 пикселей
Высота                                   : 576 пикселей
Соотношение сторон                       : 4:3
Частота кадров                           : 25,000 кадров/сек
Стандарт вещания                         : PAL
Цветовое пространство                    : YUV
Субдискретизация насыщенности            : 4:2:0
Битовая глубина                          : 8 бит
Тип развёртки                            : Чересстрочная
Порядок развёртки                        : Верхнее поле первое
Метод сжатия                             : С потерями
Временной код первого кадра              : 00:00:00:00
Оригинал временного кода                 : Group of pictures header
Текст
Идентификатор                            : 189 (0xBD)-32 (0x20)
Формат                                   : RLE
Формат/Информация                        : Run-length encoding
Режим смешивания                         : DVD-Video
Задержка видео                           : -80 мс.
Меню
Общее
Полное имя                               : H:\Video\Music\Bonobo ‎– The North Borders Tour Live (2014)\VTS_03_1.VOB
Формат                                   : MPEG-PS
Размер файла                             : 305 Мбайт
Продолжительность                        : 5 м. 7 с.
Режим общего битрейта                    : Переменный
Общий поток                              : 8331 Кбит/сек
Видео
Идентификатор                            : 224 (0xE0)
Формат                                   : MPEG Video
Версия формата                           : Version 2
Профиль формата                          : Main@Main
Параметр BVOP формата                    : Да
Параметр матрицы формата                 : По умолчанию
Параметр GOP формата                     : M=3, N=12
Продолжительность                        : 5 м. 6 с.
Вид битрейта                             : Переменный
Битрейт                                  : 7973 Кбит/сек
Максимальный битрейт                     : 9000 Кбит/сек
Ширина                                   : 720 пикселей
Высота                                   : 576 пикселей
Соотношение сторон                       : 16:9
Частота кадров                           : 25,000 кадров/сек
Стандарт вещания                         : PAL
Цветовое пространство                    : YUV
Субдискретизация насыщенности            : 4:2:0
Битовая глубина                          : 8 бит
Тип развёртки                            : Чересстрочная
Порядок развёртки                        : Верхнее поле первое
Метод сжатия                             : С потерями
Бит/(Пиксели*Кадры)                      : 0.769
Временной код первого кадра              : 01:04:47:21
Оригинал временного кода                 : Group of pictures header
Размер потока                            : 292 Мбайт (96%)
Аудио
Идентификатор                            : 189 (0xBD)-128 (0x80)
Формат                                   : AC-3
Формат/Информация                        : Audio Coding 3
Расширение режима                        : CM (complete main)
Параметр Endianness формата              : Big
Режим смешивания                         : DVD-Video
Продолжительность                        : 5 м. 7 с.
Вид битрейта                             : Постоянный
Битрейт                                  : 192 Кбит/сек
Каналы                                   : 2 канала
Расположение каналов                     : Front: L R
Частота                                  : 48,0 КГц
Битовая глубина                          : 16 бит
Метод сжатия                             : С потерями
Задержка видео                           : -80 мс.
Размер потока                            : 7,03 Мбайт (2%)
Меню
Общее
Полное имя                               : H:\Video\Music\Bonobo ‎– The North Borders Tour Live (2014)\VTS_04_0.BUP
Формат                                   : DVD Video
Профиль формата                          : Program
Размер файла                             : 20,0 Кбайт
Продолжительность                        : 4 м. 34 с.
Режим общего битрейта                    : Переменный
Общий поток                              : 596 бит/сек
Видео
Идентификатор                            : 224 (0xE0)
Формат                                   : MPEG Video
Версия формата                           : Version 2
Продолжительность                        : 4 м. 34 с.
Вид битрейта                             : Переменный
Ширина                                   : 720 пикселей
Высота                                   : 576 пикселей
Соотношение сторон                       : 16:9
Частота кадров                           : 25,000 кадров/сек
Стандарт вещания                         : PAL
Метод сжатия                             : С потерями
Аудио
Идентификатор                            : 128 (0x80)
Формат                                   : AC-3
Формат/Информация                        : Audio Coding 3
Продолжительность                        : 4 м. 34 с.
Каналы                                   : 2 канала
Частота                                  : 48,0 КГц
Метод сжатия                             : С потерями
Меню
Продолжительность                        : 4 м. 34 с.
00:00:00.000                             : Chapter 1
List (Audio)                             : 0
Общее
Полное имя                               : H:\Video\Music\Bonobo ‎– The North Borders Tour Live (2014)\VTS_04_0.IFO
Формат                                   : DVD Video
Профиль формата                          : Program
Размер файла                             : 20,0 Кбайт
Продолжительность                        : 4 м. 34 с.
Режим общего битрейта                    : Переменный
Общий поток                              : 596 бит/сек
Видео
Идентификатор                            : 224 (0xE0)
Формат                                   : MPEG Video
Версия формата                           : Version 2
Продолжительность                        : 4 м. 34 с.
Вид битрейта                             : Переменный
Ширина                                   : 720 пикселей
Высота                                   : 576 пикселей
Соотношение сторон                       : 16:9
Частота кадров                           : 25,000 кадров/сек
Стандарт вещания                         : PAL
Метод сжатия                             : С потерями
Аудио
Идентификатор                            : 128 (0x80)
Формат                                   : AC-3
Формат/Информация                        : Audio Coding 3
Продолжительность                        : 4 м. 34 с.
Каналы                                   : 2 канала
Частота                                  : 48,0 КГц
Метод сжатия                             : С потерями
Меню
Продолжительность                        : 4 м. 34 с.
00:00:00.000                             : Chapter 1
List (Audio)                             : 0
Общее
Полное имя                               : H:\Video\Music\Bonobo ‎– The North Borders Tour Live (2014)\VTS_04_0.VOB
Формат                                   : MPEG-PS
Размер файла                             : 154 Кбайт
Продолжительность                        : 520 мс.
Общий поток                              : 2426 Кбит/сек
Видео
Идентификатор                            : 224 (0xE0)
Формат                                   : MPEG Video
Версия формата                           : Version 2
Профиль формата                          : Main@Main
Параметр BVOP формата                    : Да
Параметр матрицы формата                 : Выборочная
Продолжительность                        : 520 мс.
Максимальный битрейт                     : 2000 Кбит/сек
Ширина                                   : 720 пикселей
Высота                                   : 576 пикселей
Соотношение сторон                       : 4:3
Частота кадров                           : 25,000 кадров/сек
Стандарт вещания                         : PAL
Цветовое пространство                    : YUV
Субдискретизация насыщенности            : 4:2:0
Битовая глубина                          : 8 бит
Тип развёртки                            : Чересстрочная
Порядок развёртки                        : Верхнее поле первое
Метод сжатия                             : С потерями
Временной код первого кадра              : 00:00:00:00
Оригинал временного кода                 : Group of pictures header
Текст
Идентификатор                            : 189 (0xBD)-32 (0x20)
Формат                                   : RLE
Формат/Информация                        : Run-length encoding
Режим смешивания                         : DVD-Video
Задержка видео                           : -80 мс.
Меню
Общее
Полное имя                               : H:\Video\Music\Bonobo ‎– The North Borders Tour Live (2014)\VTS_04_1.VOB
Формат                                   : MPEG-PS
Размер файла                             : 276 Мбайт
Продолжительность                        : 4 м. 34 с.
Режим общего битрейта                    : Переменный
Общий поток                              : 8426 Кбит/сек
Видео
Идентификатор                            : 224 (0xE0)
Формат                                   : MPEG Video
Версия формата                           : Version 2
Профиль формата                          : Main@Main
Параметр BVOP формата                    : Да
Параметр матрицы формата                 : По умолчанию
Параметр GOP формата                     : M=3, N=12
Продолжительность                        : 4 м. 34 с.
Вид битрейта                             : Переменный
Битрейт                                  : 8066 Кбит/сек
Максимальный битрейт                     : 9000 Кбит/сек
Ширина                                   : 720 пикселей
Высота                                   : 576 пикселей
Соотношение сторон                       : 16:9
Частота кадров                           : 25,000 кадров/сек
Стандарт вещания                         : PAL
Цветовое пространство                    : YUV
Субдискретизация насыщенности            : 4:2:0
Битовая глубина                          : 8 бит
Тип развёртки                            : Чересстрочная
Порядок развёртки                        : Верхнее поле первое
Метод сжатия                             : С потерями
Бит/(Пиксели*Кадры)                      : 0.778
Временной код первого кадра              : 01:09:56:24
Оригинал временного кода                 : Group of pictures header
Размер потока                            : 264 Мбайт (96%)
Аудио
Идентификатор                            : 189 (0xBD)-128 (0x80)
Формат                                   : AC-3
Формат/Информация                        : Audio Coding 3
Расширение режима                        : CM (complete main)
Параметр Endianness формата              : Big
Режим смешивания                         : DVD-Video
Продолжительность                        : 4 м. 34 с.
Вид битрейта                             : Постоянный
Битрейт                                  : 192 Кбит/сек
Каналы                                   : 2 канала
Расположение каналов                     : Front: L R
Частота                                  : 48,0 КГц
Битовая глубина                          : 16 бит
Метод сжатия                             : С потерями
Задержка видео                           : -80 мс.
Размер потока                            : 6,29 Мбайт (2%)
Меню
Общее
Полное имя                               : H:\Video\Music\Bonobo ‎– The North Borders Tour Live (2014)\VTS_05_0.BUP
Формат                                   : DVD Video
Профиль формата                          : Program
Размер файла                             : 18,0 Кбайт
Продолжительность                        : 2 м. 51 с.
Режим общего битрейта                    : Переменный
Общий поток                              : 861 бит/сек
Видео
Идентификатор                            : 224 (0xE0)
Формат                                   : MPEG Video
Версия формата                           : Version 2
Продолжительность                        : 2 м. 51 с.
Вид битрейта                             : Переменный
Ширина                                   : 720 пикселей
Высота                                   : 576 пикселей
Соотношение сторон                       : 16:9
Частота кадров                           : 25,000 кадров/сек
Стандарт вещания                         : PAL
Метод сжатия                             : С потерями
Аудио
Идентификатор                            : 128 (0x80)
Формат                                   : AC-3
Формат/Информация                        : Audio Coding 3
Продолжительность                        : 2 м. 51 с.
Каналы                                   : 2 канала
Частота                                  : 48,0 КГц
Метод сжатия                             : С потерями
Меню
Продолжительность                        : 2 м. 51 с.
00:00:00.000                             : Chapter 1
List (Audio)                             : 0
Общее
Полное имя                               : H:\Video\Music\Bonobo ‎– The North Borders Tour Live (2014)\VTS_05_0.IFO
Формат                                   : DVD Video
Профиль формата                          : Program
Размер файла                             : 18,0 Кбайт
Продолжительность                        : 2 м. 51 с.
Режим общего битрейта                    : Переменный
Общий поток                              : 861 бит/сек
Видео
Идентификатор                            : 224 (0xE0)
Формат                                   : MPEG Video
Версия формата                           : Version 2
Продолжительность                        : 2 м. 51 с.
Вид битрейта                             : Переменный
Ширина                                   : 720 пикселей
Высота                                   : 576 пикселей
Соотношение сторон                       : 16:9
Частота кадров                           : 25,000 кадров/сек
Стандарт вещания                         : PAL
Метод сжатия                             : С потерями
Аудио
Идентификатор                            : 128 (0x80)
Формат                                   : AC-3
Формат/Информация                        : Audio Coding 3
Продолжительность                        : 2 м. 51 с.
Каналы                                   : 2 канала
Частота                                  : 48,0 КГц
Метод сжатия                             : С потерями
Меню
Продолжительность                        : 2 м. 51 с.
00:00:00.000                             : Chapter 1
List (Audio)                             : 0
Общее
Полное имя                               : H:\Video\Music\Bonobo ‎– The North Borders Tour Live (2014)\VTS_05_0.VOB
Формат                                   : MPEG-PS
Размер файла                             : 154 Кбайт
Продолжительность                        : 520 мс.
Общий поток                              : 2426 Кбит/сек
Видео
Идентификатор                            : 224 (0xE0)
Формат                                   : MPEG Video
Версия формата                           : Version 2
Профиль формата                          : Main@Main
Параметр BVOP формата                    : Да
Параметр матрицы формата                 : Выборочная
Продолжительность                        : 520 мс.
Максимальный битрейт                     : 2000 Кбит/сек
Ширина                                   : 720 пикселей
Высота                                   : 576 пикселей
Соотношение сторон                       : 4:3
Частота кадров                           : 25,000 кадров/сек
Стандарт вещания                         : PAL
Цветовое пространство                    : YUV
Субдискретизация насыщенности            : 4:2:0
Битовая глубина                          : 8 бит
Тип развёртки                            : Чересстрочная
Порядок развёртки                        : Верхнее поле первое
Метод сжатия                             : С потерями
Временной код первого кадра              : 00:00:00:00
Оригинал временного кода                 : Group of pictures header
Текст
Идентификатор                            : 189 (0xBD)-32 (0x20)
Формат                                   : RLE
Формат/Информация                        : Run-length encoding
Режим смешивания                         : DVD-Video
Задержка видео                           : -80 мс.
Меню
Общее
Полное имя                               : H:\Video\Music\Bonobo ‎– The North Borders Tour Live (2014)\VTS_05_1.VOB
Формат                                   : MPEG-PS
Размер файла                             : 144 Мбайт
Продолжительность                        : 2 м. 51 с.
Режим общего битрейта                    : Переменный
Общий поток                              : 7024 Кбит/сек
Видео
Идентификатор                            : 224 (0xE0)
Формат                                   : MPEG Video
Версия формата                           : Version 2
Профиль формата                          : Main@Main
Параметр BVOP формата                    : Да
Параметр матрицы формата                 : По умолчанию
Параметр GOP формата                     : M=3, N=12
Продолжительность                        : 2 м. 51 с.
Вид битрейта                             : Переменный
Битрейт                                  : 6692 Кбит/сек
Максимальный битрейт                     : 9000 Кбит/сек
Ширина                                   : 720 пикселей
Высота                                   : 576 пикселей
Соотношение сторон                       : 16:9
Частота кадров                           : 25,000 кадров/сек
Стандарт вещания                         : PAL
Цветовое пространство                    : YUV
Субдискретизация насыщенности            : 4:2:0
Битовая глубина                          : 8 бит
Тип развёртки                            : Чересстрочная
Порядок развёртки                        : Верхнее поле первое
Метод сжатия                             : С потерями
Бит/(Пиксели*Кадры)                      : 0.645
Временной код первого кадра              : 01:00:00:00
Оригинал временного кода                 : Group of pictures header
Размер потока                            : 137 Мбайт (95%)
Аудио
Идентификатор                            : 189 (0xBD)-128 (0x80)
Формат                                   : AC-3
Формат/Информация                        : Audio Coding 3
Расширение режима                        : CM (complete main)
Параметр Endianness формата              : Big
Режим смешивания                         : DVD-Video
Продолжительность                        : 2 м. 51 с.
Вид битрейта                             : Постоянный
Битрейт                                  : 192 Кбит/сек
Каналы                                   : 2 канала
Расположение каналов                     : Front: L R
Частота                                  : 48,0 КГц
Битовая глубина                          : 16 бит
Метод сжатия                             : С потерями
Задержка видео                           : -80 мс.
Размер потока                            : 3,92 Мбайт (3%)
Меню


Скриншоты меню





Скриншоты












Спасибо svaavs за DVD!
AUDIO (lossless)                                                                                                                                                               
                       
                       
                       
                       
                       
                                磁力下载:
                                                               
                                       
游客,本主题需向作者支付 7金币 才能浏览,金币充值, 免回复、免金币,直接查看内容请开通VIP购买主题

                                               
  • 6.19 GB
                                                                                           
  • 温馨提示

    记得善用社区搜索功能,那里可能会有你想要的资源;论坛站内搜索

    如果你有什么需要的资源可以去资源求档发帖,求助社区的网友,我们会在第一时间给你回复哦;资源求档

    对于本社区网盘链接失效密码错误各种报错请在反馈板块反馈报错发帖,您的支持,是我们发展的最大动力;投诉建议

    回复

    使用道具 举报

    您需要登录后才可以回帖 登录 | 立即注册 微信登录

    本版积分规则

    关注1

    粉丝9

    帖子38312

    发布主题
    阅读排行更多+
    关闭

    站长推荐上一条 /1 下一条

    活动提示

    双11活动通知:

    赞助永久VIP会员,赠送希捷/西部机械硬盘或者百度网盘SVIP一年(充值到你网盘帐号)+5000GB HIRES资源活动开启通知。

    地址:https://www.maomicd.com/huodong/

    我知道了
    收藏帖子 返回列表 这是一个自定义按钮
    音乐分享,音乐下载。
    微信公众号
    微信号:maomiyinyue
    意见反馈:admin@maomicd.com

    加入我们的官方QQ群和微信群

    Powered by Discuz! X3.4 Archiver|手机版|小黑屋|猫咪音乐网 ( 苏ICP备20015413号 )|( 苏公网安备 32030502000272号) 繁體

    JS of wanmeiff.com and vcpic.com Please keep this copyright information, respect of, thank you!JS of wanmeiff.com and vcpic.com Please keep this copyright information, respect of, thank you!

    GMT+8, 2020-11-27 05:19