请选择 进入手机版 | 继续访问电脑版

自购原抓音乐圈:只有自购、合购、原抓级高解析(hires、sacd、dsd)正版音乐资源分享!【点我打开
广告

[电子音乐] V.A. - Lightmotiv, Elektrolux & ICM Media presents Liquid Lounge [2007,

[复制链接]
嗨音社 发表于 2020-10-30 21:21:55 | 显示全部楼层 |阅读模式 打印 上一主题 下一主题
V.A. - Lightmotiv, Elektrolux & ICM Media presents Liquid Lounge
Страна: Германия Жанр: Downtempo, Ambient Продолжительность: 01:10:30 Год выпуска: 2007 г. Лейбл: Liquid Lounge

Треклист

01. Jonson - Autumnbits 1 0:27
02. Fresh Moods - The Touch (Enchant Mix) 5:12
03. Planet Lounge - Ocean Drive 6:03
04. Groovecatcher - What The Croupier Saw 6:16
05. Espresso Del Lago - The Spirit Of Buddha 1:42
06. Phonosynthese - Traumzauberbaum 1:42
07. Aural Float - Dreamer's Dream 0:27
08. Pascal Feos - Fata Morgana 5:12
09. Jens Buchert - Sunrider 6:03
10. Prof. Kazkaz - New Moon 6:16
11. Rescape - Sternenhorizont 1:42
12. Guardner - Island Three 1:42

Разбивка на главы по трекам: есть
Качество : DVD5
Формат: DVD video
Видео кодек: MPEG2
Аудио кодек: AC3
Видео: MPEG 2, 720x576 (4:3), 25.00 fps
Аудио: AC-3, 48.0 KHz, 2 ch, 448 Kbps

Mediainfo

Общее
Полное имя                               : D:\00_РАЗДАЧИ\V.A. - Lightmotiv, Elektrolux & ICM Media presents Liquid Lounge (2007)\VIDEO_TS\VIDEO_TS.BUP
Формат                                   : DVD Video
Профиль формата                          : Menu
Размер файла                             : 16,0 Кбайт
Режим общего битрейта                    : Переменный
Видео
Идентификатор                            : 224 (0xE0)
Формат                                   : MPEG Video
Версия формата                           : Version 2
Вид битрейта                             : Переменный
Ширина                                   : 720 пикселей
Высота                                   : 576 пикселей
Соотношение сторон                       : 4:3
Частота кадров                           : 25,000 кадров/сек
Стандарт вещания                         : PAL
Метод сжатия                             : С потерями
Текст
Формат                                   : RLE
Формат/Информация                        : Run-length encoding
Битовая глубина                          : 2 бит
Общее
Полное имя                               : D:\00_РАЗДАЧИ\V.A. - Lightmotiv, Elektrolux & ICM Media presents Liquid Lounge (2007)\VIDEO_TS\VIDEO_TS.IFO
Формат                                   : DVD Video
Профиль формата                          : Menu
Размер файла                             : 16,0 Кбайт
Режим общего битрейта                    : Переменный
Видео
Идентификатор                            : 224 (0xE0)
Формат                                   : MPEG Video
Версия формата                           : Version 2
Вид битрейта                             : Переменный
Ширина                                   : 720 пикселей
Высота                                   : 576 пикселей
Соотношение сторон                       : 4:3
Частота кадров                           : 25,000 кадров/сек
Стандарт вещания                         : PAL
Метод сжатия                             : С потерями
Текст
Формат                                   : RLE
Формат/Информация                        : Run-length encoding
Битовая глубина                          : 2 бит
Общее
Полное имя                               : D:\00_РАЗДАЧИ\V.A. - Lightmotiv, Elektrolux & ICM Media presents Liquid Lounge (2007)\VIDEO_TS\VIDEO_TS.VOB
Формат                                   : MPEG-PS
Размер файла                             : 154 Кбайт
Продолжительность                        : 600 мс.
Общий поток                              : 2103 Кбит/сек
Видео
Идентификатор                            : 224 (0xE0)
Формат                                   : MPEG Video
Версия формата                           : Version 2
Профиль формата                          : Main@Main
Параметр BVOP формата                    : Да
Параметр матрицы формата                 : Выборочная
Структура изображения                    : Frame
Продолжительность                        : 600 мс.
Максимальный битрейт                     : 2000 Кбит/сек
Ширина                                   : 720 пикселей
Высота                                   : 576 пикселей
Соотношение сторон                       : 4:3
Частота кадров                           : 25,000 кадров/сек
Стандарт вещания                         : PAL
Цветовое пространство                    : YUV
Субдискретизация насыщенности            : 4:2:0
Битовая глубина                          : 8 бит
Тип развёртки                            : Чересстрочная
Порядок развёртки                        : Верхнее поле первое
Метод сжатия                             : С потерями
Временной код первого кадра              : 00:00:00:00
Оригинал временного кода                 : Group of pictures header
Текст
Идентификатор                            : 189 (0xBD)-32 (0x20)
Формат                                   : RLE
Формат/Информация                        : Run-length encoding
Режим смешивания                         : DVD-Video
Меню
Общее
Полное имя                               : D:\00_РАЗДАЧИ\V.A. - Lightmotiv, Elektrolux & ICM Media presents Liquid Lounge (2007)\VIDEO_TS\VTS_01_0.BUP
Формат                                   : DVD Video
Профиль формата                          : Program
Размер файла                             : 18,0 Кбайт
Продолжительность                        : 22 с.
Режим общего битрейта                    : Переменный
Общий поток                              : 6703 бит/сек
Видео
Идентификатор                            : 224 (0xE0)
Формат                                   : MPEG Video
Версия формата                           : Version 2
Продолжительность                        : 22 с.
Вид битрейта                             : Переменный
Ширина                                   : 720 пикселей
Высота                                   : 576 пикселей
Соотношение сторон                       : 4:3
Частота кадров                           : 25,000 кадров/сек
Стандарт вещания                         : PAL
Метод сжатия                             : С потерями
Меню
Продолжительность                        : 22 с.
00:00:00.000                             : Chapter 1
Общее
Полное имя                               : D:\00_РАЗДАЧИ\V.A. - Lightmotiv, Elektrolux & ICM Media presents Liquid Lounge (2007)\VIDEO_TS\VTS_01_0.IFO
Формат                                   : DVD Video
Профиль формата                          : Program
Размер файла                             : 18,0 Кбайт
Продолжительность                        : 22 с.
Режим общего битрейта                    : Переменный
Общий поток                              : 6703 бит/сек
Видео
Идентификатор                            : 224 (0xE0)
Формат                                   : MPEG Video
Версия формата                           : Version 2
Продолжительность                        : 22 с.
Вид битрейта                             : Переменный
Ширина                                   : 720 пикселей
Высота                                   : 576 пикселей
Соотношение сторон                       : 4:3
Частота кадров                           : 25,000 кадров/сек
Стандарт вещания                         : PAL
Метод сжатия                             : С потерями
Меню
Продолжительность                        : 22 с.
00:00:00.000                             : Chapter 1
Общее
Полное имя                               : D:\00_РАЗДАЧИ\V.A. - Lightmotiv, Elektrolux & ICM Media presents Liquid Lounge (2007)\VIDEO_TS\VTS_01_0.VOB
Формат                                   : MPEG-PS
Размер файла                             : 154 Кбайт
Продолжительность                        : 600 мс.
Общий поток                              : 2103 Кбит/сек
Видео
Идентификатор                            : 224 (0xE0)
Формат                                   : MPEG Video
Версия формата                           : Version 2
Профиль формата                          : Main@Main
Параметр BVOP формата                    : Да
Параметр матрицы формата                 : Выборочная
Структура изображения                    : Frame
Продолжительность                        : 600 мс.
Максимальный битрейт                     : 2000 Кбит/сек
Ширина                                   : 720 пикселей
Высота                                   : 576 пикселей
Соотношение сторон                       : 4:3
Частота кадров                           : 25,000 кадров/сек
Стандарт вещания                         : PAL
Цветовое пространство                    : YUV
Субдискретизация насыщенности            : 4:2:0
Битовая глубина                          : 8 бит
Тип развёртки                            : Чересстрочная
Порядок развёртки                        : Верхнее поле первое
Метод сжатия                             : С потерями
Временной код первого кадра              : 00:00:00:00
Оригинал временного кода                 : Group of pictures header
Текст
Идентификатор                            : 189 (0xBD)-32 (0x20)
Формат                                   : RLE
Формат/Информация                        : Run-length encoding
Режим смешивания                         : DVD-Video
Меню
Общее
Полное имя                               : D:\00_РАЗДАЧИ\V.A. - Lightmotiv, Elektrolux & ICM Media presents Liquid Lounge (2007)\VIDEO_TS\VTS_01_1.VOB
Формат                                   : MPEG-PS
Размер файла                             : 10,5 Мбайт
Продолжительность                        : 22 с.
Режим общего битрейта                    : Переменный
Общий поток                              : 4013 Кбит/сек
Видео
Идентификатор                            : 224 (0xE0)
Формат                                   : MPEG Video
Версия формата                           : Version 2
Профиль формата                          : Main@Main
Параметр BVOP формата                    : Да
Параметр матрицы формата                 : Выборочная
Параметр GOP формата                     : M=3, N=12
Структура изображения                    : Frame
Продолжительность                        : 22 с.
Вид битрейта                             : Переменный
Битрейт                                  : 3933 Кбит/сек
Максимальный битрейт                     : 6500 Кбит/сек
Ширина                                   : 720 пикселей
Высота                                   : 576 пикселей
Соотношение сторон                       : 4:3
Частота кадров                           : 25,000 кадров/сек
Стандарт вещания                         : PAL
Цветовое пространство                    : YUV
Субдискретизация насыщенности            : 4:2:0
Битовая глубина                          : 8 бит
Тип развёртки                            : Чересстрочная
Порядок развёртки                        : Верхнее поле первое
Метод сжатия                             : С потерями
Бит/(Пиксели*Кадры)                      : 0.379
Временной код первого кадра              : 00:00:00:00
Оригинал временного кода                 : Group of pictures header
GOP, открыто/закрыто                     : Закрыто
Размер потока                            : 10,3 Мбайт (98%)
Меню
Общее
Полное имя                               : D:\00_РАЗДАЧИ\V.A. - Lightmotiv, Elektrolux & ICM Media presents Liquid Lounge (2007)\VIDEO_TS\VTS_02_0.BUP
Формат                                   : DVD Video
Профиль формата                          : Program
Размер файла                             : 68,0 Кбайт
Продолжительность                        : 1 ч. 12 м.
Режим общего битрейта                    : Переменный
Общий поток                              : 128 бит/сек
Видео
Идентификатор                            : 224 (0xE0)
Формат                                   : MPEG Video
Версия формата                           : Version 2
Продолжительность                        : 1 ч. 12 м.
Вид битрейта                             : Переменный
Ширина                                   : 720 пикселей
Высота                                   : 576 пикселей
Соотношение сторон                       : 4:3
Частота кадров                           : 25,000 кадров/сек
Стандарт вещания                         : PAL
Метод сжатия                             : С потерями
Аудио
Идентификатор                            : 128 (0x80)
Формат                                   : AC-3
Формат/Информация                        : Audio Coding 3
Продолжительность                        : 1 ч. 12 м.
Каналы                                   : 2 канала
Частота                                  : 48,0 КГц
Метод сжатия                             : С потерями
Текст
Идентификатор                            : 32 (0x20)
Формат                                   : RLE
Формат/Информация                        : Run-length encoding
Битовая глубина                          : 2 бит
Язык                                     : English
Меню
Продолжительность                        : 1 ч. 12 м.
00:00:00.000                             : Chapter 1
00:07:02.840                             : Chapter 2
00:13:43.760                             : Chapter 3
00:16:42.080                             : Chapter 4
00:22:26.200                             : Chapter 5
00:26:45.040                             : Chapter 6
00:32:34.080                             : Chapter 7
00:38:46.800                             : Chapter 8
00:47:29.400                             : Chapter 9
00:54:43.880                             : Chapter 10
00:58:41.000                             : Chapter 11
01:03:51.920                             : Chapter 12
01:08:34.920                             : Chapter 13
01:12:33.000                             : Chapter 14
List (Audio)                             : 0
List (Subtitles 4/3)                     : 0
List (Subtitles Wide)                    : 0
List (Subtitles Letterbox)               : 0
List (Subtitles Pan&Scan)                : 0
Общее
Полное имя                               : D:\00_РАЗДАЧИ\V.A. - Lightmotiv, Elektrolux & ICM Media presents Liquid Lounge (2007)\VIDEO_TS\VTS_02_0.IFO
Формат                                   : DVD Video
Профиль формата                          : Program
Размер файла                             : 68,0 Кбайт
Продолжительность                        : 1 ч. 12 м.
Режим общего битрейта                    : Переменный
Общий поток                              : 128 бит/сек
Видео
Идентификатор                            : 224 (0xE0)
Формат                                   : MPEG Video
Версия формата                           : Version 2
Продолжительность                        : 1 ч. 12 м.
Вид битрейта                             : Переменный
Ширина                                   : 720 пикселей
Высота                                   : 576 пикселей
Соотношение сторон                       : 4:3
Частота кадров                           : 25,000 кадров/сек
Стандарт вещания                         : PAL
Метод сжатия                             : С потерями
Аудио
Идентификатор                            : 128 (0x80)
Формат                                   : AC-3
Формат/Информация                        : Audio Coding 3
Продолжительность                        : 1 ч. 12 м.
Каналы                                   : 2 канала
Частота                                  : 48,0 КГц
Метод сжатия                             : С потерями
Текст
Идентификатор                            : 32 (0x20)
Формат                                   : RLE
Формат/Информация                        : Run-length encoding
Битовая глубина                          : 2 бит
Язык                                     : English
Меню
Продолжительность                        : 1 ч. 12 м.
00:00:00.000                             : Chapter 1
00:07:02.840                             : Chapter 2
00:13:43.760                             : Chapter 3
00:16:42.080                             : Chapter 4
00:22:26.200                             : Chapter 5
00:26:45.040                             : Chapter 6
00:32:34.080                             : Chapter 7
00:38:46.800                             : Chapter 8
00:47:29.400                             : Chapter 9
00:54:43.880                             : Chapter 10
00:58:41.000                             : Chapter 11
01:03:51.920                             : Chapter 12
01:08:34.920                             : Chapter 13
01:12:33.000                             : Chapter 14
List (Audio)                             : 0
List (Subtitles 4/3)                     : 0
List (Subtitles Wide)                    : 0
List (Subtitles Letterbox)               : 0
List (Subtitles Pan&Scan)                : 0
Общее
Полное имя                               : D:\00_РАЗДАЧИ\V.A. - Lightmotiv, Elektrolux & ICM Media presents Liquid Lounge (2007)\VIDEO_TS\VTS_02_0.VOB
Формат                                   : MPEG-PS
Размер файла                             : 152 Мбайт
Продолжительность                        : 1 м. 0 с.
Режим общего битрейта                    : Переменный
Общий поток                              : 21,3 Мбит/сек
Видео
Идентификатор                            : 224 (0xE0)
Формат                                   : MPEG Video
Версия формата                           : Version 2
Профиль формата                          : Main@Main
Параметр BVOP формата                    : Да
Параметр матрицы формата                 : Выборочная
Параметр GOP формата                     : Variable
Структура изображения                    : Frame
Продолжительность                        : 40 мс.
Вид битрейта                             : Переменный
Битрейт                                  : 20,4 Мбит/сек
Максимальный битрейт                     : 6500 Кбит/сек
Ширина                                   : 720 пикселей
Высота                                   : 576 пикселей
Соотношение сторон                       : 4:3
Частота кадров                           : 25,000 кадров/сек
Стандарт вещания                         : PAL
Цветовое пространство                    : YUV
Субдискретизация насыщенности            : 4:2:0
Битовая глубина                          : 8 бит
Тип развёртки                            : Чересстрочная
Порядок развёртки                        : Верхнее поле первое
Метод сжатия                             : С потерями
Бит/(Пиксели*Кадры)                      : 1.968
Временной код первого кадра              : 00:00:00:00
Оригинал временного кода                 : Group of pictures header
GOP, открыто/закрыто                     : Закрыто
Размер потока                            : 99,6 Кбайт (0%)
Аудио
Идентификатор                            : 189 (0xBD)-128 (0x80)
Формат                                   : AC-3
Формат/Информация                        : Audio Coding 3
Расширение режима                        : CM (complete main)
Параметр Endianness формата              : Big
Режим смешивания                         : DVD-Video
Продолжительность                        : 1 м. 0 с.
Вид битрейта                             : Постоянный
Битрейт                                  : 448 Кбит/сек
Каналы                                   : 2 канала
Расположение каналов                     : Front: L R
Частота                                  : 48,0 КГц
Метод сжатия                             : С потерями
Размер потока                            : 3,20 Мбайт (2%)
Текст
Идентификатор                            : 189 (0xBD)-32 (0x20)
Формат                                   : RLE
Формат/Информация                        : Run-length encoding
Режим смешивания                         : DVD-Video
Меню
Общее
Полное имя                               : D:\00_РАЗДАЧИ\V.A. - Lightmotiv, Elektrolux & ICM Media presents Liquid Lounge (2007)\VIDEO_TS\VTS_02_1.VOB
Формат                                   : MPEG-PS
Размер файла                             : 1024 Мбайт
Продолжительность                        : 26 м.
Режим общего битрейта                    : Переменный
Общий поток                              : 5468 Кбит/сек
Видео
Идентификатор                            : 224 (0xE0)
Формат                                   : MPEG Video
Версия формата                           : Version 2
Профиль формата                          : Main@Main
Параметр BVOP формата                    : Да
Параметр матрицы формата                 : Выборочная
Параметр GOP формата                     : M=3, N=12
Структура изображения                    : Frame
Продолжительность                        : 26 м.
Вид битрейта                             : Переменный
Битрейт                                  : 4911 Кбит/сек
Максимальный битрейт                     : 7500 Кбит/сек
Ширина                                   : 720 пикселей
Высота                                   : 576 пикселей
Соотношение сторон                       : 4:3
Частота кадров                           : 25,000 кадров/сек
Стандарт вещания                         : PAL
Цветовое пространство                    : YUV
Субдискретизация насыщенности            : 4:2:0
Битовая глубина                          : 8 бит
Тип развёртки                            : Чересстрочная
Порядок развёртки                        : Нижнее поле первое
Метод сжатия                             : С потерями
Бит/(Пиксели*Кадры)                      : 0.474
Временной код первого кадра              : 01:00:00:00
Оригинал временного кода                 : Group of pictures header
GOP, открыто/закрыто                     : Закрыто
Размер потока                            : 920 Мбайт (90%)
Основные цвета                           : BT.601 PAL
Характеристики трансфера                 : BT.470 System B, BT.470 System G
Коэффициенты матрицы                     : BT.601
Аудио
Идентификатор                            : 189 (0xBD)-128 (0x80)
Формат                                   : AC-3
Формат/Информация                        : Audio Coding 3
Расширение режима                        : CM (complete main)
Параметр Endianness формата              : Big
Режим смешивания                         : DVD-Video
Продолжительность                        : 26 м.
Вид битрейта                             : Постоянный
Битрейт                                  : 448 Кбит/сек
Каналы                                   : 2 канала
Расположение каналов                     : Front: L R
Частота                                  : 48,0 КГц
Метод сжатия                             : С потерями
Размер потока                            : 83,9 Мбайт (8%)
Меню
Общее
Полное имя                               : D:\00_РАЗДАЧИ\V.A. - Lightmotiv, Elektrolux & ICM Media presents Liquid Lounge (2007)\VIDEO_TS\VTS_02_2.VOB
Формат                                   : MPEG-PS
Размер файла                             : 1024 Мбайт
Продолжительность                        : 23 м.
Режим общего битрейта                    : Переменный
Общий поток                              : 6221 Кбит/сек
Видео
Идентификатор                            : 224 (0xE0)
Формат                                   : MPEG Video
Версия формата                           : Version 2
Профиль формата                          : Main@Main
Параметр BVOP формата                    : Да
Параметр матрицы формата                 : Выборочная
Параметр GOP формата                     : M=3, N=12
Структура изображения                    : Frame
Продолжительность                        : 23 м.
Вид битрейта                             : Переменный
Битрейт                                  : 5649 Кбит/сек
Максимальный битрейт                     : 7500 Кбит/сек
Ширина                                   : 720 пикселей
Высота                                   : 576 пикселей
Соотношение сторон                       : 4:3
Частота кадров                           : 25,000 кадров/сек
Стандарт вещания                         : PAL
Цветовое пространство                    : YUV
Субдискретизация насыщенности            : 4:2:0
Битовая глубина                          : 8 бит
Тип развёртки                            : Чересстрочная
Порядок развёртки                        : Нижнее поле первое
Метод сжатия                             : С потерями
Бит/(Пиксели*Кадры)                      : 0.545
Временной код первого кадра              : 01:26:10:21
Оригинал временного кода                 : Group of pictures header
GOP, открыто/закрыто                     : Закрыто
Размер потока                            : 930 Мбайт (91%)
Основные цвета                           : BT.601 PAL
Характеристики трансфера                 : BT.470 System B, BT.470 System G
Коэффициенты матрицы                     : BT.601
Аудио
Идентификатор                            : 189 (0xBD)-128 (0x80)
Формат                                   : AC-3
Формат/Информация                        : Audio Coding 3
Расширение режима                        : CM (complete main)
Параметр Endianness формата              : Big
Режим смешивания                         : DVD-Video
Продолжительность                        : 23 м.
Вид битрейта                             : Постоянный
Битрейт                                  : 448 Кбит/сек
Каналы                                   : 2 канала
Расположение каналов                     : Front: L R
Частота                                  : 48,0 КГц
Метод сжатия                             : С потерями
Задержка видео                           : -504 мс.
Размер потока                            : 73,7 Мбайт (7%)
Меню
Общее
Полное имя                               : D:\00_РАЗДАЧИ\V.A. - Lightmotiv, Elektrolux & ICM Media presents Liquid Lounge (2007)\VIDEO_TS\VTS_02_3.VOB
Формат                                   : MPEG-PS
Размер файла                             : 839 Мбайт
Продолжительность                        : 23 м.
Режим общего битрейта                    : Переменный
Общий поток                              : 5017 Кбит/сек
Видео
Идентификатор                            : 224 (0xE0)
Формат                                   : MPEG Video
Версия формата                           : Version 2
Профиль формата                          : Main@Main
Параметр BVOP формата                    : Да
Параметр матрицы формата                 : Выборочная
Параметр GOP формата                     : M=3, N=12
Структура изображения                    : Frame
Продолжительность                        : 23 м.
Вид битрейта                             : Переменный
Битрейт                                  : 4469 Кбит/сек
Максимальный битрейт                     : 7500 Кбит/сек
Ширина                                   : 720 пикселей
Высота                                   : 576 пикселей
Соотношение сторон                       : 4:3
Частота кадров                           : 25,000 кадров/сек
Стандарт вещания                         : PAL
Цветовое пространство                    : YUV
Субдискретизация насыщенности            : 4:2:0
Битовая глубина                          : 8 бит
Тип развёртки                            : Чересстрочная
Порядок развёртки                        : Нижнее поле первое
Метод сжатия                             : С потерями
Бит/(Пиксели*Кадры)                      : 0.431
Временной код первого кадра              : 01:49:11:16
Оригинал временного кода                 : Group of pictures header
GOP, открыто/закрыто                     : Закрыто
Размер потока                            : 747 Мбайт (89%)
Основные цвета                           : BT.601 PAL
Характеристики трансфера                 : BT.470 System B, BT.470 System G
Коэффициенты матрицы                     : BT.601
Аудио
Идентификатор                            : 189 (0xBD)-128 (0x80)
Формат                                   : AC-3
Формат/Информация                        : Audio Coding 3
Расширение режима                        : CM (complete main)
Параметр Endianness формата              : Big
Режим смешивания                         : DVD-Video
Продолжительность                        : 23 м.
Вид битрейта                             : Постоянный
Битрейт                                  : 448 Кбит/сек
Каналы                                   : 2 канала
Расположение каналов                     : Front: L R
Частота                                  : 48,0 КГц
Метод сжатия                             : С потерями
Задержка видео                           : -664 мс.
Размер потока                            : 74,9 Мбайт (9%)
Меню
Общее
Полное имя                               : D:\00_РАЗДАЧИ\V.A. - Lightmotiv, Elektrolux & ICM Media presents Liquid Lounge (2007)\VIDEO_TS\VTS_03_0.BUP
Формат                                   : DVD Video
Профиль формата                          : Program
Размер файла                             : 18,0 Кбайт
Продолжительность                        : 1 м. 20 с.
Режим общего битрейта                    : Переменный
Общий поток                              : 1843 бит/сек
Видео
Идентификатор                            : 224 (0xE0)
Формат                                   : MPEG Video
Версия формата                           : Version 2
Продолжительность                        : 1 м. 20 с.
Вид битрейта                             : Переменный
Ширина                                   : 720 пикселей
Высота                                   : 576 пикселей
Соотношение сторон                       : 4:3
Частота кадров                           : 25,000 кадров/сек
Стандарт вещания                         : PAL
Метод сжатия                             : С потерями
Аудио
Идентификатор                            : 128 (0x80)
Формат                                   : AC-3
Формат/Информация                        : Audio Coding 3
Продолжительность                        : 1 м. 20 с.
Каналы                                   : 2 канала
Частота                                  : 48,0 КГц
Метод сжатия                             : С потерями
Меню
Продолжительность                        : 1 м. 20 с.
00:00:00.000                             : Chapter 1
00:01:18.240                             : Chapter 2
List (Audio)                             : 0
Общее
Полное имя                               : D:\00_РАЗДАЧИ\V.A. - Lightmotiv, Elektrolux & ICM Media presents Liquid Lounge (2007)\VIDEO_TS\VTS_03_0.IFO
Формат                                   : DVD Video
Профиль формата                          : Program
Размер файла                             : 18,0 Кбайт
Продолжительность                        : 1 м. 20 с.
Режим общего битрейта                    : Переменный
Общий поток                              : 1843 бит/сек
Видео
Идентификатор                            : 224 (0xE0)
Формат                                   : MPEG Video
Версия формата                           : Version 2
Продолжительность                        : 1 м. 20 с.
Вид битрейта                             : Переменный
Ширина                                   : 720 пикселей
Высота                                   : 576 пикселей
Соотношение сторон                       : 4:3
Частота кадров                           : 25,000 кадров/сек
Стандарт вещания                         : PAL
Метод сжатия                             : С потерями
Аудио
Идентификатор                            : 128 (0x80)
Формат                                   : AC-3
Формат/Информация                        : Audio Coding 3
Продолжительность                        : 1 м. 20 с.
Каналы                                   : 2 канала
Частота                                  : 48,0 КГц
Метод сжатия                             : С потерями
Меню
Продолжительность                        : 1 м. 20 с.
00:00:00.000                             : Chapter 1
00:01:18.240                             : Chapter 2
List (Audio)                             : 0
Общее
Полное имя                               : D:\00_РАЗДАЧИ\V.A. - Lightmotiv, Elektrolux & ICM Media presents Liquid Lounge (2007)\VIDEO_TS\VTS_03_0.VOB
Формат                                   : MPEG-PS
Размер файла                             : 154 Кбайт
Продолжительность                        : 600 мс.
Общий поток                              : 2103 Кбит/сек
Видео
Идентификатор                            : 224 (0xE0)
Формат                                   : MPEG Video
Версия формата                           : Version 2
Профиль формата                          : Main@Main
Параметр BVOP формата                    : Да
Параметр матрицы формата                 : Выборочная
Структура изображения                    : Frame
Продолжительность                        : 600 мс.
Максимальный битрейт                     : 2000 Кбит/сек
Ширина                                   : 720 пикселей
Высота                                   : 576 пикселей
Соотношение сторон                       : 4:3
Частота кадров                           : 25,000 кадров/сек
Стандарт вещания                         : PAL
Цветовое пространство                    : YUV
Субдискретизация насыщенности            : 4:2:0
Битовая глубина                          : 8 бит
Тип развёртки                            : Чересстрочная
Порядок развёртки                        : Верхнее поле первое
Метод сжатия                             : С потерями
Временной код первого кадра              : 00:00:00:00
Оригинал временного кода                 : Group of pictures header
Текст
Идентификатор                            : 189 (0xBD)-32 (0x20)
Формат                                   : RLE
Формат/Информация                        : Run-length encoding
Режим смешивания                         : DVD-Video
Меню
Общее
Полное имя                               : D:\00_РАЗДАЧИ\V.A. - Lightmotiv, Elektrolux & ICM Media presents Liquid Lounge (2007)\VIDEO_TS\VTS_03_1.VOB
Формат                                   : MPEG-PS
Размер файла                             : 54,8 Мбайт
Продолжительность                        : 1 м. 20 с.
Режим общего битрейта                    : Переменный
Общий поток                              : 5751 Кбит/сек
Видео
Идентификатор                            : 224 (0xE0)
Формат                                   : MPEG Video
Версия формата                           : Version 2
Профиль формата                          : Main@Main
Параметр BVOP формата                    : Да
Параметр матрицы формата                 : Выборочная
Параметр GOP формата                     : M=3, N=12
Структура изображения                    : Frame
Продолжительность                        : 1 м. 20 с.
Вид битрейта                             : Переменный
Битрейт                                  : 5189 Кбит/сек
Максимальный битрейт                     : 6500 Кбит/сек
Ширина                                   : 720 пикселей
Высота                                   : 576 пикселей
Соотношение сторон                       : 4:3
Частота кадров                           : 25,000 кадров/сек
Стандарт вещания                         : PAL
Цветовое пространство                    : YUV
Субдискретизация насыщенности            : 4:2:0
Битовая глубина                          : 8 бит
Тип развёртки                            : Чересстрочная
Порядок развёртки                        : Нижнее поле первое
Метод сжатия                             : С потерями
Бит/(Пиксели*Кадры)                      : 0.500
Временной код первого кадра              : 01:03:27:02
Оригинал временного кода                 : Group of pictures header
GOP, открыто/закрыто                     : Закрыто
Размер потока                            : 49,5 Мбайт (90%)
Основные цвета                           : BT.601 PAL
Характеристики трансфера                 : BT.470 System B, BT.470 System G
Коэффициенты матрицы                     : BT.601
Аудио
Идентификатор                            : 189 (0xBD)-128 (0x80)
Формат                                   : AC-3
Формат/Информация                        : Audio Coding 3
Расширение режима                        : CM (complete main)
Параметр Endianness формата              : Big
Режим смешивания                         : DVD-Video
Продолжительность                        : 1 м. 20 с.
Вид битрейта                             : Постоянный
Битрейт                                  : 448 Кбит/сек
Каналы                                   : 2 канала
Расположение каналов                     : Front: L R
Частота                                  : 48,0 КГц
Метод сжатия                             : С потерями
Размер потока                            : 4,27 Мбайт (8%)
Меню
Общее
Полное имя                               : D:\00_РАЗДАЧИ\V.A. - Lightmotiv, Elektrolux & ICM Media presents Liquid Lounge (2007)\VIDEO_TS\VTS_04_0.BUP
Формат                                   : DVD Video
Профиль формата                          : Program
Размер файла                             : 18,0 Кбайт
Продолжительность                        : 1 м. 1 с.
Режим общего битрейта                    : Переменный
Общий поток                              : 2386 бит/сек
Видео
Идентификатор                            : 224 (0xE0)
Формат                                   : MPEG Video
Версия формата                           : Version 2
Продолжительность                        : 1 м. 1 с.
Вид битрейта                             : Переменный
Ширина                                   : 720 пикселей
Высота                                   : 576 пикселей
Соотношение сторон                       : 4:3
Частота кадров                           : 25,000 кадров/сек
Стандарт вещания                         : PAL
Метод сжатия                             : С потерями
Аудио
Идентификатор                            : 128 (0x80)
Формат                                   : AC-3
Формат/Информация                        : Audio Coding 3
Продолжительность                        : 1 м. 1 с.
Каналы                                   : 2 канала
Частота                                  : 48,0 КГц
Метод сжатия                             : С потерями
Меню
Продолжительность                        : 1 м. 1 с.
00:00:00.000                             : Chapter 1
00:01:00.960                             : Chapter 2
List (Audio)                             : 0
Общее
Полное имя                               : D:\00_РАЗДАЧИ\V.A. - Lightmotiv, Elektrolux & ICM Media presents Liquid Lounge (2007)\VIDEO_TS\VTS_04_0.IFO
Формат                                   : DVD Video
Профиль формата                          : Program
Размер файла                             : 18,0 Кбайт
Продолжительность                        : 1 м. 1 с.
Режим общего битрейта                    : Переменный
Общий поток                              : 2386 бит/сек
Видео
Идентификатор                            : 224 (0xE0)
Формат                                   : MPEG Video
Версия формата                           : Version 2
Продолжительность                        : 1 м. 1 с.
Вид битрейта                             : Переменный
Ширина                                   : 720 пикселей
Высота                                   : 576 пикселей
Соотношение сторон                       : 4:3
Частота кадров                           : 25,000 кадров/сек
Стандарт вещания                         : PAL
Метод сжатия                             : С потерями
Аудио
Идентификатор                            : 128 (0x80)
Формат                                   : AC-3
Формат/Информация                        : Audio Coding 3
Продолжительность                        : 1 м. 1 с.
Каналы                                   : 2 канала
Частота                                  : 48,0 КГц
Метод сжатия                             : С потерями
Меню
Продолжительность                        : 1 м. 1 с.
00:00:00.000                             : Chapter 1
00:01:00.960                             : Chapter 2
List (Audio)                             : 0
Общее
Полное имя                               : D:\00_РАЗДАЧИ\V.A. - Lightmotiv, Elektrolux & ICM Media presents Liquid Lounge (2007)\VIDEO_TS\VTS_04_0.VOB
Формат                                   : MPEG-PS
Размер файла                             : 154 Кбайт
Продолжительность                        : 600 мс.
Общий поток                              : 2103 Кбит/сек
Видео
Идентификатор                            : 224 (0xE0)
Формат                                   : MPEG Video
Версия формата                           : Version 2
Профиль формата                          : Main@Main
Параметр BVOP формата                    : Да
Параметр матрицы формата                 : Выборочная
Структура изображения                    : Frame
Продолжительность                        : 600 мс.
Максимальный битрейт                     : 2000 Кбит/сек
Ширина                                   : 720 пикселей
Высота                                   : 576 пикселей
Соотношение сторон                       : 4:3
Частота кадров                           : 25,000 кадров/сек
Стандарт вещания                         : PAL
Цветовое пространство                    : YUV
Субдискретизация насыщенности            : 4:2:0
Битовая глубина                          : 8 бит
Тип развёртки                            : Чересстрочная
Порядок развёртки                        : Верхнее поле первое
Метод сжатия                             : С потерями
Временной код первого кадра              : 00:00:00:00
Оригинал временного кода                 : Group of pictures header
Текст
Идентификатор                            : 189 (0xBD)-32 (0x20)
Формат                                   : RLE
Формат/Информация                        : Run-length encoding
Режим смешивания                         : DVD-Video
Меню
Общее
Полное имя                               : D:\00_РАЗДАЧИ\V.A. - Lightmotiv, Elektrolux & ICM Media presents Liquid Lounge (2007)\VIDEO_TS\VTS_04_1.VOB
Формат                                   : MPEG-PS
Размер файла                             : 50,0 Мбайт
Продолжительность                        : 1 м. 1 с.
Режим общего битрейта                    : Переменный
Общий поток                              : 6786 Кбит/сек
Видео
Идентификатор                            : 224 (0xE0)
Формат                                   : MPEG Video
Версия формата                           : Version 2
Профиль формата                          : Main@Main
Параметр BVOP формата                    : Да
Параметр матрицы формата                 : Выборочная
Параметр GOP формата                     : M=3, N=12
Структура изображения                    : Frame
Продолжительность                        : 1 м. 1 с.
Вид битрейта                             : Переменный
Битрейт                                  : 6203 Кбит/сек
Максимальный битрейт                     : 6500 Кбит/сек
Ширина                                   : 720 пикселей
Высота                                   : 576 пикселей
Соотношение сторон                       : 4:3
Частота кадров                           : 25,000 кадров/сек
Стандарт вещания                         : PAL
Цветовое пространство                    : YUV
Субдискретизация насыщенности            : 4:2:0
Битовая глубина                          : 8 бит
Тип развёртки                            : Чересстрочная
Порядок развёртки                        : Нижнее поле первое
Метод сжатия                             : С потерями
Бит/(Пиксели*Кадры)                      : 0.598
Временной код первого кадра              : 01:00:00:00
Оригинал временного кода                 : Group of pictures header
GOP, открыто/закрыто                     : Закрыто
Размер потока                            : 45,7 Мбайт (91%)
Основные цвета                           : BT.601 PAL
Характеристики трансфера                 : BT.470 System B, BT.470 System G
Коэффициенты матрицы                     : BT.601
Аудио
Идентификатор                            : 189 (0xBD)-128 (0x80)
Формат                                   : AC-3
Формат/Информация                        : Audio Coding 3
Расширение режима                        : CM (complete main)
Параметр Endianness формата              : Big
Режим смешивания                         : DVD-Video
Продолжительность                        : 1 м. 1 с.
Вид битрейта                             : Постоянный
Битрейт                                  : 448 Кбит/сек
Каналы                                   : 2 канала
Расположение каналов                     : Front: L R
Частота                                  : 48,0 КГц
Метод сжатия                             : С потерями
Размер потока                            : 3,30 Мбайт (7%)
Меню





DVDinfo

Title: V.A. - Lightmotiv, Elektrolux & ICM Media presents Liquid Lounge (2007)
Size: 3.08 Gb ( 3 231 112,00 KBytes ) - DVD-5
Enabled regions: 1, 2, 3, 4, 5, 6, 7, 8
VTS_01 :
  Play Length: 00:00:22
  Video: PAL 4:3 (720x576) VBR
VTS_02 :
  Play Length: 01:12:34
  Video: PAL 4:3 (720x576) VBR
  Audio:
      Not specified (Dolby AC3, 2 ch)
  Subtitles:
      English
VTS_03 :
  Play Length: 00:01:20
  Video: PAL 4:3 (720x576) VBR
  Audio:
      Not specified (Dolby AC3, 2 ch)
VTS_04 :
  Play Length: 00:01:01
  Video: PAL 4:3 (720x576) VBR
  Audio:
      Not specified (Dolby AC3, 2 ch)
* Menus Information *
VIDEO_TS Menu
Video:
      PAL 4:3 (720x576) VBR
Deutsch Language Unit :
      Title Menu
VTS_01 Menu
Video:
      PAL 4:3 (720x576) VBR
Deutsch Language Unit :
      Root Menu
VTS_02 Menu
Video:
      PAL 4:3 (720x576) VBR
Audio:
      Not specified (Dolby AC3, 2 ch)
Deutsch Language Unit :
      Root Menu
      Subpicture Menu
      Chapter (PTT) Menu
VTS_03 Menu
Video:
      PAL 4:3 (720x576) VBR
Deutsch Language Unit :
      Root Menu
VTS_04 Menu
Video:
      PAL 4:3 (720x576) VBR
Deutsch Language Unit :
      Root Menu





Скриншоты меню








Скриншоты








                                                                                                                                                               
                       
                       
                       
                       
                       
                                磁力下载:
                                                               
                                       
游客,本主题需向作者支付 7金币 才能浏览,金币充值, 免回复、免金币,直接查看内容请开通VIP购买主题

                                               
  • 3.14 GB
                                                                                           
  • 温馨提示

    记得善用社区搜索功能,那里可能会有你想要的资源;论坛站内搜索

    如果你有什么需要的资源可以去资源求档发帖,求助社区的网友,我们会在第一时间给你回复哦;资源求档

    对于本社区网盘链接失效密码错误各种报错请在反馈板块反馈报错发帖,您的支持,是我们发展的最大动力;投诉建议

    回复

    使用道具 举报

    您需要登录后才可以回帖 登录 | 立即注册 微信登录

    本版积分规则

    关注1

    粉丝9

    帖子38312

    发布主题
    阅读排行更多+
    关闭

    站长推荐上一条 /1 下一条

    活动提示

    双11活动通知:

    赞助永久VIP会员,赠送希捷/西部机械硬盘或者百度网盘SVIP一年(充值到你网盘帐号)+5000GB HIRES资源活动开启通知。

    地址:https://www.maomicd.com/huodong/

    我知道了
    收藏帖子 返回列表 这是一个自定义按钮
    音乐分享,音乐下载。
    微信公众号
    微信号:maomiyinyue
    意见反馈:admin@maomicd.com

    加入我们的官方QQ群和微信群

    Powered by Discuz! X3.4 Archiver|手机版|小黑屋|猫咪音乐网 ( 苏ICP备20015413号 )|( 苏公网安备 32030502000272号) 繁體

    JS of wanmeiff.com and vcpic.com Please keep this copyright information, respect of, thank you!JS of wanmeiff.com and vcpic.com Please keep this copyright information, respect of, thank you!

    GMT+8, 2020-11-24 05:23