请选择 进入手机版 | 继续访问电脑版

自购原抓音乐圈:只有自购、合购、原抓级高解析(hires、sacd、dsd)正版音乐资源分享!【点我打开
广告

[电子音乐] Shpongle - Live In London [2015, PsyChill, Downtempo, DVD5 (сжатый)]

[复制链接]
沙田实名认证 发表于 2020-10-30 21:21:55 | 显示全部楼层 |阅读模式 打印 上一主题 下一主题
Shpongle - Live In London
Жанр: PsyChill, Downtempo
Продолжительность: 02:11:27 + 00:03:22
Год выпуска: 2015 г.
Лейбл: Twisted Records
Треклист:
01 Museum Of Consciousness
02 Dorset Perception
03 Periscopes Of Consciousness
04 When Shall I Be Free
05 Aquatic Garden Of Extra-Celestial Delights
06 I Am You
07 Juggling Molecules
08 The Epiphany Of Mrs Kugla
09 Nothing Is Something Worth Doing
10 How The Jellyfish Jumped Up The Mountain
11 DMT
12 Beija Flor
13 My Head Feels Like A Frisbee
14 Around The World In A Tea Daze
15 Raja's Renditions
Доп. информация:
Диск предоставлен vostrik. Он уже был в таком виде. Собственных преобразований не производил. Процент сжатия видео неизвестен.
Консультации и помощь в создании раздачи - CHKA1961.
Качество : DVD5 (сжатый)
Формат: DVD video
Видео кодек: MPEG2
Аудио кодек: AC3
Видео: 720x576p, PAL 16:9, VBR, Auto Letterboxed, 3818-5512 (8500) Kbps, 25.000 fps
Аудио: Dolby AC3, 320 kbps, 48 kHz, 2 ch




DVDinfo

Title: SHPONGLE_LIVE_IN_CONCERT
Size: 4.20 Gb ( 4 403 230,00 KBytes ) - DVD-5
Enabled regions: 1, 2, 3, 4, 5, 6, 7, 8
VTS_01 :
  Play Length: 02:11:27
  Video: PAL 16:9 (720x576) VBR, Auto Letterboxed
  Audio:
      Not specified (Dolby AC3, 2 ch)
VTS_02 :
  Play Length: 00:03:22
  Video: PAL 16:9 (720x576) VBR, Auto Letterboxed
  Audio:
      Not specified (Dolby AC3, 2 ch)
* Menus Information *
VIDEO_TS Menu
Video:
      PAL 16:9 (720x576) VBR
      Auto Letterboxed
English Language Unit :
      Title Menu
VTS_01 Menu
Video:
      PAL 16:9 (720x576) VBR
      Auto Letterboxed
Audio:
      Not specified (Dolby AC3, 2 ch)
English Language Unit :
      Root Menu
VTS_02 Menu
Video:
      PAL 4:3 (720x576) VBR
English Language Unit :
      Root Menu


MediaInfo

General
Complete name                            : C:\Music\Temp\SHPONGLE_LIVE_IN_CONCERT\VIDEO_TS\VIDEO_TS.BUP
Format                                   : DVD Video
Format profile                           : Menu
File size                                : 10.0 KiB
Overall bit rate mode                    : Variable
Video
ID                                       : 224 (0xE0)
Format                                   : MPEG Video
Format version                           : Version 2
Bit rate mode                            : Variable
Width                                    : 720 pixels
Height                                   : 576 pixels
Display aspect ratio                     : 16:9
Frame rate                               : 25.000 fps
Standard                                 : PAL
Compression mode                         : Lossy
Text
Format                                   : RLE
Format/Info                              : Run-length encoding
Bit depth                                : 2 bits
General
Complete name                            : C:\Music\Temp\SHPONGLE_LIVE_IN_CONCERT\VIDEO_TS\VIDEO_TS.IFO
Format                                   : DVD Video
Format profile                           : Menu
File size                                : 10.0 KiB
Overall bit rate mode                    : Variable
Video
ID                                       : 224 (0xE0)
Format                                   : MPEG Video
Format version                           : Version 2
Bit rate mode                            : Variable
Width                                    : 720 pixels
Height                                   : 576 pixels
Display aspect ratio                     : 16:9
Frame rate                               : 25.000 fps
Standard                                 : PAL
Compression mode                         : Lossy
Text
Format                                   : RLE
Format/Info                              : Run-length encoding
Bit depth                                : 2 bits
General
Complete name                            : C:\Music\Temp\SHPONGLE_LIVE_IN_CONCERT\VIDEO_TS\VTS_01_0.BUP
Format                                   : DVD Video
Format profile                           : Program
File size                                : 86.0 KiB
Duration                                 : 2h 11mn
Overall bit rate mode                    : Variable
Overall bit rate                         : 89 bps
Video
ID                                       : 224 (0xE0)
Format                                   : MPEG Video
Format version                           : Version 2
Duration                                 : 2h 11mn
Bit rate mode                            : Variable
Width                                    : 720 pixels
Height                                   : 576 pixels
Display aspect ratio                     : 16:9
Frame rate                               : 25.000 fps
Standard                                 : PAL
Compression mode                         : Lossy
Audio
ID                                       : 128 (0x80)
Format                                   : AC-3
Format/Info                              : Audio Coding 3
Duration                                 : 2h 11mn
Channel(s)                               : 2 channels
Sampling rate                            : 48.0 KHz
Compression mode                         : Lossy
Menu
Duration                                 : 2h 11mn
00:00:00.000                             : Chapter 1
00:00:26.600                             : Chapter 2
00:08:54.800                             : Chapter 3
00:17:07.320                             : Chapter 4
00:21:32.760                             : Chapter 5
00:29:46.120                             : Chapter 6
00:39:42.520                             : Chapter 7
00:51:20.280                             : Chapter 8
01:01:05.760                             : Chapter 9
01:07:48.680                             : Chapter 10
01:16:07.080                             : Chapter 11
01:26:26.440                             : Chapter 12
01:37:30.320                             : Chapter 13
01:49:48.120                             : Chapter 14
01:58:46.840                             : Chapter 15
List (Audio)                             : 0
General
Complete name                            : C:\Music\Temp\SHPONGLE_LIVE_IN_CONCERT\VIDEO_TS\VTS_01_0.IFO
Format                                   : DVD Video
Format profile                           : Program
File size                                : 86.0 KiB
Duration                                 : 2h 11mn
Overall bit rate mode                    : Variable
Overall bit rate                         : 89 bps
Video
ID                                       : 224 (0xE0)
Format                                   : MPEG Video
Format version                           : Version 2
Duration                                 : 2h 11mn
Bit rate mode                            : Variable
Width                                    : 720 pixels
Height                                   : 576 pixels
Display aspect ratio                     : 16:9
Frame rate                               : 25.000 fps
Standard                                 : PAL
Compression mode                         : Lossy
Audio
ID                                       : 128 (0x80)
Format                                   : AC-3
Format/Info                              : Audio Coding 3
Duration                                 : 2h 11mn
Channel(s)                               : 2 channels
Sampling rate                            : 48.0 KHz
Compression mode                         : Lossy
Menu
Duration                                 : 2h 11mn
00:00:00.000                             : Chapter 1
00:00:26.600                             : Chapter 2
00:08:54.800                             : Chapter 3
00:17:07.320                             : Chapter 4
00:21:32.760                             : Chapter 5
00:29:46.120                             : Chapter 6
00:39:42.520                             : Chapter 7
00:51:20.280                             : Chapter 8
01:01:05.760                             : Chapter 9
01:07:48.680                             : Chapter 10
01:16:07.080                             : Chapter 11
01:26:26.440                             : Chapter 12
01:37:30.320                             : Chapter 13
01:49:48.120                             : Chapter 14
01:58:46.840                             : Chapter 15
List (Audio)                             : 0
General
Complete name                            : C:\Music\Temp\SHPONGLE_LIVE_IN_CONCERT\VIDEO_TS\VTS_01_0.VOB
Format                                   : MPEG-PS
File size                                : 92.1 MiB
Duration                                 : 1s 960ms
Overall bit rate mode                    : Variable
Overall bit rate                         : 394 Mbps
Video
ID                                       : 224 (0xE0)
Format                                   : MPEG Video
Format version                           : Version 2
Format profile                           : Main@Main
Format settings, BVOP                    : Yes
Format settings, Matrix                  : Custom
Format settings, GOP                     : Variable
Format settings, picture structure       : Frame
Duration                                 : 1s 960ms
Bit rate mode                            : Variable
Bit rate                                 : 386 Mbps
Maximum bit rate                         : 8 000 Kbps
Width                                    : 720 pixels
Height                                   : 576 pixels
Display aspect ratio                     : 16:9
Frame rate                               : 25.000 fps
Standard                                 : PAL
Color space                              : YUV
Chroma subsampling                       : 4:2:0
Bit depth                                : 8 bits
Scan type                                : Interlaced
Scan order                               : Top Field First
Compression mode                         : Lossy
Bits/(Pixel*Frame)                       : 37.236
Time code of first frame                 : 00:00:00:00
Time code source                         : Group of pictures header
GOP, Open/Closed                         : Closed
Stream size                              : 90.2 MiB (98%)
Audio
ID                                       : 189 (0xBD)-128 (0x80)
Format                                   : AC-3
Format/Info                              : Audio Coding 3
Mode extension                           : CM (complete main)
Format settings, Endianness              : Big
Muxing mode                              : DVD-Video
Duration                                 : 1s 960ms
Bit rate mode                            : Constant
Bit rate                                 : 320 Kbps
Channel(s)                               : 2 channels
Channel positions                        : Front: L R
Sampling rate                            : 48.0 KHz
Bit depth                                : 16 bits
Compression mode                         : Lossy
Stream size                              : 76.6 KiB (0%)
Text #1
ID                                       : 189 (0xBD)-32 (0x20)
Format                                   : RLE
Format/Info                              : Run-length encoding
Muxing mode                              : DVD-Video
Delay relative to video                  : 4s 480ms
Text #2
ID                                       : 189 (0xBD)-33 (0x21)
Format                                   : RLE
Format/Info                              : Run-length encoding
Muxing mode                              : DVD-Video
Delay relative to video                  : 4s 480ms
Menu
General
Complete name                            : C:\Music\Temp\SHPONGLE_LIVE_IN_CONCERT\VIDEO_TS\VTS_01_1.VOB
Format                                   : MPEG-PS
File size                                : 1 024 MiB
Duration                                 : 33mn 8s
Overall bit rate mode                    : Variable
Overall bit rate                         : 4 321 Kbps
Video
ID                                       : 224 (0xE0)
Format                                   : MPEG Video
Format version                           : Version 2
Format profile                           : Main@Main
Format settings, BVOP                    : Yes
Format settings, Matrix                  : Custom
Format settings, GOP                     : M=2, N=7
Duration                                 : 33mn 8s
Bit rate mode                            : Variable
Bit rate                                 : 3 915 Kbps
Maximum bit rate                         : 8 500 Kbps
Width                                    : 720 pixels
Height                                   : 576 pixels
Display aspect ratio                     : 16:9
Frame rate                               : 25.000 fps
Standard                                 : PAL
Color space                              : YUV
Chroma subsampling                       : 4:2:0
Bit depth                                : 8 bits
Scan type                                : Progressive
Compression mode                         : Lossy
Bits/(Pixel*Frame)                       : 0.378
Time code of first frame                 : 00:00:00:00
Time code source                         : Group of pictures header
GOP, Open/Closed                         : Closed
Stream size                              : 928 MiB (91%)
Color primaries                          : BT.601 PAL
Transfer characteristics                 : BT.470 System B, BT.470 System G
Matrix coefficients                      : BT.601
Audio
ID                                       : 189 (0xBD)-128 (0x80)
Format                                   : AC-3
Format/Info                              : Audio Coding 3
Mode extension                           : CM (complete main)
Format settings, Endianness              : Big
Muxing mode                              : DVD-Video
Duration                                 : 33mn 7s
Bit rate mode                            : Constant
Bit rate                                 : 320 Kbps
Channel(s)                               : 2 channels
Channel positions                        : Front: L R
Sampling rate                            : 48.0 KHz
Bit depth                                : 16 bits
Compression mode                         : Lossy
Stream size                              : 75.8 MiB (7%)
Menu
General
Complete name                            : C:\Music\Temp\SHPONGLE_LIVE_IN_CONCERT\VIDEO_TS\VTS_01_2.VOB
Format                                   : MPEG-PS
File size                                : 1 024 MiB
Duration                                 : 32mn 30s
Overall bit rate mode                    : Variable
Overall bit rate                         : 4 405 Kbps
Video
ID                                       : 224 (0xE0)
Format                                   : MPEG Video
Format version                           : Version 2
Format profile                           : Main@Main
Format settings, BVOP                    : Yes
Format settings, Matrix                  : Custom
Format settings, GOP                     : M=2, N=7
Duration                                 : 32mn 30s
Bit rate mode                            : Variable
Bit rate                                 : 3 997 Kbps
Maximum bit rate                         : 8 500 Kbps
Width                                    : 720 pixels
Height                                   : 576 pixels
Display aspect ratio                     : 16:9
Frame rate                               : 25.000 fps
Standard                                 : PAL
Color space                              : YUV
Chroma subsampling                       : 4:2:0
Bit depth                                : 8 bits
Scan type                                : Progressive
Compression mode                         : Lossy
Bits/(Pixel*Frame)                       : 0.386
Time code of first frame                 : 00:33:08:00
Time code source                         : Group of pictures header
GOP, Open/Closed                         : Closed
Stream size                              : 929 MiB (91%)
Color primaries                          : BT.601 PAL
Transfer characteristics                 : BT.470 System B, BT.470 System G
Matrix coefficients                      : BT.601
Audio
ID                                       : 189 (0xBD)-128 (0x80)
Format                                   : AC-3
Format/Info                              : Audio Coding 3
Mode extension                           : CM (complete main)
Format settings, Endianness              : Big
Muxing mode                              : DVD-Video
Duration                                 : 32mn 30s
Bit rate mode                            : Constant
Bit rate                                 : 320 Kbps
Channel(s)                               : 2 channels
Channel positions                        : Front: L R
Sampling rate                            : 48.0 KHz
Bit depth                                : 16 bits
Compression mode                         : Lossy
Delay relative to video                  : -256ms
Stream size                              : 74.4 MiB (7%)
Menu
General
Complete name                            : C:\Music\Temp\SHPONGLE_LIVE_IN_CONCERT\VIDEO_TS\VTS_01_3.VOB
Format                                   : MPEG-PS
File size                                : 1 024 MiB
Duration                                 : 32mn 58s
Overall bit rate mode                    : Variable
Overall bit rate                         : 4 342 Kbps
Video
ID                                       : 224 (0xE0)
Format                                   : MPEG Video
Format version                           : Version 2
Format profile                           : Main@Main
Format settings, BVOP                    : Yes
Format settings, Matrix                  : Custom
Format settings, GOP                     : M=2, N=7
Duration                                 : 32mn 58s
Bit rate mode                            : Variable
Bit rate                                 : 3 936 Kbps
Maximum bit rate                         : 8 500 Kbps
Width                                    : 720 pixels
Height                                   : 576 pixels
Display aspect ratio                     : 16:9
Frame rate                               : 25.000 fps
Standard                                 : PAL
Color space                              : YUV
Chroma subsampling                       : 4:2:0
Bit depth                                : 8 bits
Scan type                                : Progressive
Compression mode                         : Lossy
Bits/(Pixel*Frame)                       : 0.380
Time code of first frame                 : 01:05:38:05
Time code source                         : Group of pictures header
GOP, Open/Closed                         : Closed
Stream size                              : 928 MiB (91%)
Color primaries                          : BT.601 PAL
Transfer characteristics                 : BT.470 System B, BT.470 System G
Matrix coefficients                      : BT.601
Audio
ID                                       : 189 (0xBD)-128 (0x80)
Format                                   : AC-3
Format/Info                              : Audio Coding 3
Mode extension                           : CM (complete main)
Format settings, Endianness              : Big
Muxing mode                              : DVD-Video
Duration                                 : 32mn 58s
Bit rate mode                            : Constant
Bit rate                                 : 320 Kbps
Channel(s)                               : 2 channels
Channel positions                        : Front: L R
Sampling rate                            : 48.0 KHz
Bit depth                                : 16 bits
Compression mode                         : Lossy
Delay relative to video                  : -184ms
Stream size                              : 75.5 MiB (7%)
Menu
General
Complete name                            : C:\Music\Temp\SHPONGLE_LIVE_IN_CONCERT\VIDEO_TS\VTS_01_4.VOB
Format                                   : MPEG-PS
File size                                : 992 MiB
Duration                                 : 32mn 50s
Overall bit rate mode                    : Variable
Overall bit rate                         : 4 222 Kbps
Video
ID                                       : 224 (0xE0)
Format                                   : MPEG Video
Format version                           : Version 2
Format profile                           : Main@Main
Format settings, BVOP                    : Yes
Format settings, Matrix                  : Custom
Format settings, GOP                     : M=2, N=7
Duration                                 : 32mn 50s
Bit rate mode                            : Variable
Bit rate                                 : 3 818 Kbps
Maximum bit rate                         : 8 500 Kbps
Width                                    : 720 pixels
Height                                   : 576 pixels
Display aspect ratio                     : 16:9
Frame rate                               : 25.000 fps
Standard                                 : PAL
Color space                              : YUV
Chroma subsampling                       : 4:2:0
Bit depth                                : 8 bits
Scan type                                : Progressive
Compression mode                         : Lossy
Bits/(Pixel*Frame)                       : 0.368
Time code of first frame                 : 01:38:36:17
Time code source                         : Group of pictures header
GOP, Open/Closed                         : Closed
Stream size                              : 897 MiB (90%)
Color primaries                          : BT.601 PAL
Transfer characteristics                 : BT.470 System B, BT.470 System G
Matrix coefficients                      : BT.601
Audio
ID                                       : 189 (0xBD)-128 (0x80)
Format                                   : AC-3
Format/Info                              : Audio Coding 3
Mode extension                           : CM (complete main)
Format settings, Endianness              : Big
Muxing mode                              : DVD-Video
Duration                                 : 32mn 50s
Bit rate mode                            : Constant
Bit rate                                 : 320 Kbps
Channel(s)                               : 2 channels
Channel positions                        : Front: L R
Sampling rate                            : 48.0 KHz
Bit depth                                : 16 bits
Compression mode                         : Lossy
Delay relative to video                  : -360ms
Stream size                              : 75.2 MiB (8%)
Menu
General
Complete name                            : C:\Music\Temp\SHPONGLE_LIVE_IN_CONCERT\VIDEO_TS\VTS_02_0.BUP
Format                                   : DVD Video
Format profile                           : Program
File size                                : 14.0 KiB
Duration                                 : 3mn 22s
Overall bit rate mode                    : Variable
Overall bit rate                         : 566 bps
Video
ID                                       : 224 (0xE0)
Format                                   : MPEG Video
Format version                           : Version 2
Duration                                 : 3mn 22s
Bit rate mode                            : Variable
Width                                    : 720 pixels
Height                                   : 576 pixels
Display aspect ratio                     : 16:9
Frame rate                               : 25.000 fps
Standard                                 : PAL
Compression mode                         : Lossy
Audio
ID                                       : 128 (0x80)
Format                                   : AC-3
Format/Info                              : Audio Coding 3
Duration                                 : 3mn 22s
Channel(s)                               : 2 channels
Sampling rate                            : 48.0 KHz
Compression mode                         : Lossy
Menu
Duration                                 : 3mn 22s
00:00:00.000                             : Chapter 1
List (Audio)                             : 0
General
Complete name                            : C:\Music\Temp\SHPONGLE_LIVE_IN_CONCERT\VIDEO_TS\VTS_02_0.IFO
Format                                   : DVD Video
Format profile                           : Program
File size                                : 14.0 KiB
Duration                                 : 3mn 22s
Overall bit rate mode                    : Variable
Overall bit rate                         : 566 bps
Video
ID                                       : 224 (0xE0)
Format                                   : MPEG Video
Format version                           : Version 2
Duration                                 : 3mn 22s
Bit rate mode                            : Variable
Width                                    : 720 pixels
Height                                   : 576 pixels
Display aspect ratio                     : 16:9
Frame rate                               : 25.000 fps
Standard                                 : PAL
Compression mode                         : Lossy
Audio
ID                                       : 128 (0x80)
Format                                   : AC-3
Format/Info                              : Audio Coding 3
Duration                                 : 3mn 22s
Channel(s)                               : 2 channels
Sampling rate                            : 48.0 KHz
Compression mode                         : Lossy
Menu
Duration                                 : 3mn 22s
00:00:00.000                             : Chapter 1
List (Audio)                             : 0
General
Complete name                            : C:\Music\Temp\SHPONGLE_LIVE_IN_CONCERT\VIDEO_TS\VTS_02_1.VOB
Format                                   : MPEG-PS
File size                                : 144 MiB
Duration                                 : 3mn 22s
Overall bit rate mode                    : Variable
Overall bit rate                         : 5 951 Kbps
Video
ID                                       : 224 (0xE0)
Format                                   : MPEG Video
Format version                           : Version 2
Format profile                           : Main@Main
Format settings, BVOP                    : Yes
Format settings, Matrix                  : Custom
Format settings, GOP                     : M=2, N=7
Duration                                 : 3mn 22s
Bit rate mode                            : Variable
Bit rate                                 : 5 512 Kbps
Maximum bit rate                         : 8 500 Kbps
Width                                    : 720 pixels
Height                                   : 576 pixels
Display aspect ratio                     : 16:9
Frame rate                               : 25.000 fps
Standard                                 : PAL
Color space                              : YUV
Chroma subsampling                       : 4:2:0
Bit depth                                : 8 bits
Scan type                                : Progressive
Compression mode                         : Lossy
Bits/(Pixel*Frame)                       : 0.532
Time code of first frame                 : 01:00:00:00
Time code source                         : Group of pictures header
GOP, Open/Closed                         : Closed
Stream size                              : 133 MiB (93%)
Color primaries                          : BT.601 PAL
Transfer characteristics                 : BT.470 System B, BT.470 System G
Matrix coefficients                      : BT.601
Audio
ID                                       : 189 (0xBD)-128 (0x80)
Format                                   : AC-3
Format/Info                              : Audio Coding 3
Mode extension                           : CM (complete main)
Format settings, Endianness              : Big
Muxing mode                              : DVD-Video
Duration                                 : 3mn 22s
Bit rate mode                            : Constant
Bit rate                                 : 320 Kbps
Channel(s)                               : 2 channels
Channel positions                        : Front: L R
Sampling rate                            : 48.0 KHz
Bit depth                                : 16 bits
Compression mode                         : Lossy
Stream size                              : 7.73 MiB (5%)
Menu


Скриншоты меню




Скриншоты












Credits

Bass, Guitar – Chris Borud
Cello – Harry Escott
Drums – Joe Russo (3)
Flute – Raja Ram
Guitar – Pete Callard
Keyboards, Guitar – Simon Posford
Performer – Cid Shaha
Photography By – Philip Volkers
Vocals – Hari Om, Michele Adamson
Written-By – Raja Ram, Simon Posford
                                                                                                                                                               
                       
                       
                       
                       
                       
                                磁力下载:
                                                               
                                       
游客,本主题需向作者支付 7金币 才能浏览,金币充值, 免回复、免金币,直接查看内容请开通VIP购买主题

                                               
  • 4.2 GB
                                                                                           
  • 温馨提示

    记得善用社区搜索功能,那里可能会有你想要的资源;论坛站内搜索

    如果你有什么需要的资源可以去资源求档发帖,求助社区的网友,我们会在第一时间给你回复哦;资源求档

    对于本社区网盘链接失效密码错误各种报错请在反馈板块反馈报错发帖,您的支持,是我们发展的最大动力;投诉建议

    回复

    使用道具 举报

    您需要登录后才可以回帖 登录 | 立即注册 微信登录

    本版积分规则

    关注1

    粉丝17

    帖子33840

    发布主题
    阅读排行更多+
    关闭

    站长推荐上一条 /1 下一条

    活动提示

    双11活动通知:

    赞助永久VIP会员,赠送希捷/西部机械硬盘或者百度网盘SVIP一年(充值到你网盘帐号)+5000GB HIRES资源活动开启通知。

    地址:https://www.maomicd.com/huodong/

    我知道了
    收藏帖子 返回列表 这是一个自定义按钮
    音乐分享,音乐下载。
    微信公众号
    微信号:maomiyinyue
    意见反馈:admin@maomicd.com

    加入我们的官方QQ群和微信群

    Powered by Discuz! X3.4 Archiver|手机版|小黑屋|猫咪音乐网 ( 苏ICP备20015413号 )|( 苏公网安备 32030502000272号) 繁體

    JS of wanmeiff.com and vcpic.com Please keep this copyright information, respect of, thank you!JS of wanmeiff.com and vcpic.com Please keep this copyright information, respect of, thank you!

    GMT+8, 2020-11-24 23:56