请选择 进入手机版 | 继续访问电脑版

自购原抓音乐圈:只有自购、合购、原抓级高解析(hires、sacd、dsd)正版音乐资源分享!【点我打开
广告

[电子音乐] Anthony Rother - This Is Electro (Works 1997 - 2005) (+ 2 CD/BOX Datapunk) [2005

[复制链接]
嗨音社 发表于 2020-10-30 21:21:02 | 显示全部楼层 |阅读模式 打印 上一主题 下一主题
Anthony Rother - This Is Electro (Works 1997 - 2005) (DVD9 + 2 CD/BOX)
Лэйбл: Datapunk
Год выпуска: 2005
Жанр: Electro
Продолжительность: DVD - 100 мин. CDA - 65 мин. CDB - 67 мин.Описание:
DVD-01 Anthony Rother Reboot The Past (Loading Sequence) (0:36)
DVD-02 Anthony Rother Emotional (Live Concert Menu) (1:38)
DVD-03 Anthony Rother Maschinenwelt (Live At Fuse Club, Belgium, 18th November 2003) (8:37)
DVD-04 Anthony Rother Modular Deejay (Live At Fuse Club, Belgium, 18th November 2003) (5:33)
DVD-05 Anthony Rother Hacker (Live At Fuse Club, Belgium, 18th November 2003) (3:57)
DVD-06 Anthony Rother Alpha One (Live At Fuse Club, Belgium, 18th November 2003) (2:57)
DVD-07 Anthony Rother Generation Electro (Live At Fuse Club, Belgium, 18th November 2003) (5:52)
DVD-08 Anthony Rother Die Macht (Live At Fuse Club, Belgium, 18th November 2003) (6:00)
DVD-09 Anthony Rother Self Control (Live At Fuse Club, Belgium, 18th November 2003) (6:15)
DVD-10 Anthony Rother Live Is Life (Live At Fuse Club, Belgium, 18th November 2003) (11:20)
DVD-11 Anthony Rother Little Computer People (Live At Fuse Club, Belgium, 18th November 2003) (8:22)
DVD-12 Anthony Rother Masters (Videos Menu) (1:47)
DVD-13 Anthony Rother Biomechanik (Video) (2:52)
DVD-14 Anthony Rother Die Macht (Video) (4:04)
DVD-15 Anthony Rother Hacker (Video) (4:04)
DVD-16 Little Computer People Little Computer People (Video) (3:00)
DVD-17 Little Computer People Little Computer People (Anthony Rother Remix) (Video) (3:11)
DVD-18 Anthony Rother Months (Video) (4:44)
DVD-19 Anthony Rother Ghost In My TV (Extra Menu) (1:56)
DVD-20 Anthony Rother Timetraveller (Video) (3:12)
DVD-21 Anthony Rother 808 Beast (City Credits) (1:48)
DVD-22 Anthony Rother String Groove (Nilanerda Video) (3:22)
DVD-23 Anthony Rother Fields Of Numbers (Project Credits) (5:22)
Трэклист CDA:
CD1-01 Anthony Rother Red Light District (6:54)
CD1-02 Anthony Rother Destroy Him My Robots (4:59)
CD1-03 Anthony Rother Don't Stop The Beat (4:00)
CD1-04 Anthony Rother Love Is For The Hardest People (5:28)
CD1-05 Little Computer People Eyes (4:49)
CD1-06 Little Computer People Little Computer People (2:56)
CD1-07 Anthony Rother Biomechanik (2:47)
CD1-08 Anthony Rother Hacker (Video Edit) (3:58)
CD1-09 Anthony Rother Simulationszeitalter (4:35)
CD1-10 Anthony Rother Die Macht (Video Edit) (3:36)
CD1-11 Anthony Rother Mathematik (6:39)
CD1-12 Anthony Rother Fields Of Numbers (A Tribute To John Carpenter) (5:04)
CD1-13 Anthony Rother God Of The Gods (Piano Mix) (3:50)
CD1-14 Anthony Rother Magic Diner - Part 4 (Video Edit) (5:13)
Трэклист CDB:
CD2-01 Anthony Rother Adam & Eve (3:40)
CD2-02 Anthony Rother Father (3:18)
CD2-03 Anthony Rother Back Home (5:27)
CD2-04 Anthony Rother Dreampeople (5:49)
CD2-05 Anthony Rother Krieg (Little Computer People Remix) (5:30)
CD2-06 Anthony Rother Young (5:28)
CD2-07 Little Computer People Little Computer People (Anthony Rother Remix) (3:05)
CD2-08 Anthony Rother Forever (4:37)
CD2-09 Anthony Rother When The Sun Goes Down (3:40)
CD2-10 Anthony Rother Synthetic (5:46)
CD2-11 Anthony Rother Luzifer (5:11)
CD2-12 Anthony Rother Simon Says (4:56)
CD2-13 Anthony Rother Break Down The Wall (7:01)
CD2-14 Anthony Rother Art Is A Technology (Part XIII) (4:09)
Доп. информация:
+ СКАНЫ 600 DPI
Отчeт EAC / CDA

Exact Audio Copy V0.99 prebeta 3 from 28. July 2007
EAC extraction logfile from 3. January 2009, 2:05
Anthony Rother / This Is Electro: Works 1997-2005 - CDA
Used drive  : LITE-ON DVDRW SOHW-812S   Adapter: 1  ID: 2
Read mode               : Secure
Utilize accurate stream : Yes
Defeat audio cache      : Yes
Make use of C2 pointers : No
Read offset correction                      : 12
Overread into Lead-In and Lead-Out          : No
Fill up missing offset samples with silence : Yes
Delete leading and trailing silent blocks   : No
Null samples used in CRC calculations       : Yes
Used interface                              : Installed external ASPI interface
Used output format              : User Defined Encoder
Selected bitrate                : 320 kBit/s
Quality                         : High
Add ID3 tag                     : No
Command line compressor         : C:\Program Files\Exact Audio Copy\Flac\flac.exe
Additional command line options : --fast -T "ARTIST=%a" -T "TITLE=%t" -T "ALBUM=%g" -T "DATE=%y" -T "TRACKNUMBER=%n" -T "GENRE=%m" %s
TOC of the extracted CD
     Track |   Start  |  Length  | Start sector | End sector
    ---------------------------------------------------------
        1  |  0:00.00 |  6:54.36 |         0    |    31085
        2  |  6:54.36 |  4:59.20 |     31086    |    53530
        3  | 11:53.56 |  4:00.26 |     53531    |    71556
        4  | 15:54.07 |  5:28.21 |     71557    |    96177
        5  | 21:22.28 |  4:49.47 |     96178    |   117899
        6  | 26:12.00 |  2:56.68 |    117900    |   131167
        7  | 29:08.68 |  2:47.43 |    131168    |   143735
        8  | 31:56.36 |  3:58.52 |    143736    |   161637
        9  | 35:55.13 |  4:35.53 |    161638    |   182315
       10  | 40:30.66 |  3:36.16 |    182316    |   198531
       11  | 44:07.07 |  6:39.25 |    198532    |   228481
       12  | 50:46.32 |  5:04.52 |    228482    |   251333
       13  | 55:51.09 |  3:50.32 |    251334    |   268615
       14  | 59:41.41 |  5:13.46 |    268616    |   292136
Range status and errors
Selected range
     Filename X:\Anthony Rother - This Is Electro  Works 1997-2005 - CDA.wav
     Peak level 89.9 %
     Range quality 100.0 %
     Test CRC 05266086
     Copy CRC 05266086
     Copy OK
No errors occurred
AccurateRip summary
Track  1  accurately ripped (confidence 4)  [EE23CC44]
Track  2  accurately ripped (confidence 4)  [2F7CED89]
Track  3  accurately ripped (confidence 4)  [14919AA5]
Track  4  accurately ripped (confidence 4)  [BAE2DEEB]
Track  5  accurately ripped (confidence 4)  [99F13B4B]
Track  6  accurately ripped (confidence 4)  [9304861B]
Track  7  accurately ripped (confidence 4)  [B7C2EE02]
Track  8  accurately ripped (confidence 4)  [0C1BD0E0]
Track  9  accurately ripped (confidence 4)  [1242581D]
Track 10  accurately ripped (confidence 4)  [C2B3071E]
Track 11  accurately ripped (confidence 4)  [A3A42DB6]
Track 12  accurately ripped (confidence 4)  [25CC3E93]
Track 13  accurately ripped (confidence 4)  [B3C67066]
Track 14  accurately ripped (confidence 4)  [24FE116D]
All tracks accurately ripped
End of status report


Отчeт EAC / CDB

Exact Audio Copy V0.99 prebeta 3 from 28. July 2007
EAC extraction logfile from 2. January 2009, 23:43
Anthony Rother / This Is Electro: Works 1997-2005 - CDB
Used drive  : LITE-ON DVDRW SOHW-812S   Adapter: 1  ID: 2
Read mode               : Secure
Utilize accurate stream : Yes
Defeat audio cache      : Yes
Make use of C2 pointers : No
Read offset correction                      : 12
Overread into Lead-In and Lead-Out          : No
Fill up missing offset samples with silence : Yes
Delete leading and trailing silent blocks   : No
Null samples used in CRC calculations       : Yes
Used interface                              : Installed external ASPI interface
Used output format              : User Defined Encoder
Selected bitrate                : 320 kBit/s
Quality                         : High
Add ID3 tag                     : No
Command line compressor         : C:\Program Files\Exact Audio Copy\Flac\flac.exe
Additional command line options : --fast -T "ARTIST=%a" -T "TITLE=%t" -T "ALBUM=%g" -T "DATE=%y" -T "TRACKNUMBER=%n" -T "GENRE=%m" %s
TOC of the extracted CD
     Track |   Start  |  Length  | Start sector | End sector
    ---------------------------------------------------------
        1  |  0:00.00 |  3:40.16 |         0    |    16515
        2  |  3:40.16 |  3:18.40 |     16516    |    31405
        3  |  6:58.56 |  5:27.08 |     31406    |    55938
        4  | 12:25.64 |  5:49.06 |     55939    |    82119
        5  | 18:14.70 |  5:30.41 |     82120    |   106910
        6  | 23:45.36 |  5:28.66 |    106911    |   131576
        7  | 29:14.27 |  3:05.70 |    131577    |   145521
        8  | 32:20.22 |  4:37.59 |    145522    |   166355
        9  | 36:58.06 |  3:40.23 |    166356    |   182878
       10  | 40:38.29 |  5:46.28 |    182879    |   208856
       11  | 46:24.57 |  5:03.38 |    208857    |   231619
       12  | 51:28.20 |  4:56.66 |    231620    |   253885
       13  | 56:25.11 |  7:01.38 |    253886    |   285498
       14  | 63:26.49 |  4:09.38 |    285499    |   304211
Range status and errors
Selected range
     Filename X:\Anthony Rother - This Is Electro  Works 1997-2005 - CDB.wav
     Peak level 98.2 %
     Range quality 99.9 %
     Test CRC 72F2D44D
     Copy CRC 72F2D44D
     Copy OK
No errors occurred
AccurateRip summary
Track  1  accurately ripped (confidence 4)  [C1F2B2DD]
Track  2  accurately ripped (confidence 4)  [F383954C]
Track  3  accurately ripped (confidence 4)  [5F78EBBB]
Track  4  accurately ripped (confidence 4)  [E343C6E6]
Track  5  accurately ripped (confidence 4)  [14143E19]
Track  6  accurately ripped (confidence 4)  [AC8AC7D3]
Track  7  accurately ripped (confidence 4)  [8D1FB8D3]
Track  8  accurately ripped (confidence 4)  [F3F4A725]
Track  9  accurately ripped (confidence 4)  [D52C2A6C]
Track 10  accurately ripped (confidence 4)  [2910484D]
Track 11  accurately ripped (confidence 4)  [26F1B5E3]
Track 12  accurately ripped (confidence 4)  [A79E9F7E]
Track 13  accurately ripped (confidence 4)  [F4EB523E]
Track 14  accurately ripped (confidence 4)  [D4B60BCA]
All tracks accurately ripped
End of status report

Качество: DVD9
Формат: DVD Video
Видео кодек: MPEG2
Аудио кодек: AC3
Видео: PAL 720x576 (16:9) 25.00fps 7000Kbps
Аудио: Dolby AC3 48000Hz 6ch 448Kbps
Скриншоты








                                                                                                                                                               
                       
                       
                       
                       
                       
                                磁力下载:
                                                               
                                       
游客,本主题需向作者支付 7金币 才能浏览,金币充值, 免回复、免金币,直接查看内容请开通VIP购买主题

                                               
  • 7.04 GB
                                                                                           
  • 温馨提示

    记得善用社区搜索功能,那里可能会有你想要的资源;论坛站内搜索

    如果你有什么需要的资源可以去资源求档发帖,求助社区的网友,我们会在第一时间给你回复哦;资源求档

    对于本社区网盘链接失效密码错误各种报错请在反馈板块反馈报错发帖,您的支持,是我们发展的最大动力;投诉建议

    回复

    使用道具 举报

    您需要登录后才可以回帖 登录 | 立即注册 微信登录

    本版积分规则

    关注1

    粉丝10

    帖子38312

    发布主题
    阅读排行更多+
    关闭

    站长推荐上一条 /1 下一条

    活动提示

    双11活动通知:

    赞助永久VIP会员,赠送希捷/西部机械硬盘或者百度网盘SVIP一年(充值到你网盘帐号)+5000GB HIRES资源活动开启通知。

    地址:https://www.maomicd.com/huodong/

    我知道了
    收藏帖子 返回列表 这是一个自定义按钮
    音乐分享,音乐下载。
    微信公众号
    微信号:maomiyinyue
    意见反馈:admin@maomicd.com

    加入我们的官方QQ群和微信群

    Powered by Discuz! X3.4 Archiver|手机版|小黑屋|猫咪音乐网 ( 苏ICP备20015413号 )|( 苏公网安备 32030502000272号) 繁體

    JS of wanmeiff.com and vcpic.com Please keep this copyright information, respect of, thank you!JS of wanmeiff.com and vcpic.com Please keep this copyright information, respect of, thank you!

    GMT+8, 2020-12-4 15:20