请选择 进入手机版 | 继续访问电脑版

自购原抓音乐圈:只有自购、合购、原抓级高解析(hires、sacd、dsd)正版音乐资源分享!【点我打开
广告

[电子音乐] Bjork - Live at Shepherds Bush Empire (David Barnard) [2001, Electronic, DVD5]

[复制链接]
嗨音社 发表于 2020-10-30 21:20:55 | 显示全部楼层 |阅读模式 打印 上一主题 下一主题
Bjork - Live at Shepherds Bush Empire
Год выпуска: 2001
Жанр: Electronic
Продолжительность: 1:16:10
Режиссер:
David Barnard
Качество: DVD5
Формат: DVD Video
Видео кодек:
MPEG2
Аудио кодек:
LPCM
Видео:
PAL 720x576 (4:3) 25.00fps 5430 Kbps
Аудио:
LPCM 48.0 KHz stereo 1536kbps
Треклист:
01 Headphones
02 Army of Me
03 One Day
04 The Modern Things
05 Venus As A Boy
06 You've Been Flirting Again
07 Isobel
08 Possibly Maybe
09 I Go Humble
10 Big Time Sensuality
11 Hyperballad
12 Enjoy
13 Human Behaviour
14 Anchor Song
15 I Miss You
16 Crying
17 Violently Happy

MediaInfo
General
Complete name : D:\Музыка\Björk Guðmundsdóttir\concert\Live at Shepherds Bush Empire\VTS_02_1.VOB
Format : MPEG-PS
File size : 1 024 MiB
Duration : 19mn 44s
Overall bit rate : 7 254 Kbps
Video
ID : 224 (0xE0)
Format : MPEG Video
Format version : Version 2
Format profile : Main@Main
Format settings, BVOP : Yes
Format settings, Matrix : Default
Duration : 19mn 44s
Bit rate mode : Variable
Bit rate : 5 430 Kbps
Nominal bit rate : 8 500 Kbps
Width : 720 pixels
Height : 576 pixels
Display aspect ratio : 4:3
Frame rate : 25.000 fps
Standard : PAL
Resolution : 8 bits
Colorimetry : 4:2:0
Scan type : Interlaced
Scan order : Top Field First
Bits/(Pixel*Frame) : 0.524
Stream size : 767 MiB (75%)
Audio
ID : 160 (0xA0)
Format : PCM
Format settings, Endianness : Big
Format settings, Sign : Signed
Muxing mode : DVD-Video
Duration : 19mn 43s
Bit rate mode : Constant
Bit rate : 1 536 Kbps
Channel(s) : 2 channels
Channel positions : Front: L R
Sampling rate : 48.0 KHz
Resolution : 16 bits
Stream size : 217 MiB (21%)

Скриншоты








                                                                                                                                                               
                       
                       
                       
                       
                       
                                磁力下载:
                                                               
                                       
游客,本主题需向作者支付 7金币 才能浏览,金币充值, 免回复、免金币,直接查看内容请开通VIP购买主题

                                               
  • 4.06 GB
                                                                                           
  • 温馨提示

    记得善用社区搜索功能,那里可能会有你想要的资源;论坛站内搜索

    如果你有什么需要的资源可以去资源求档发帖,求助社区的网友,我们会在第一时间给你回复哦;资源求档

    对于本社区网盘链接失效密码错误各种报错请在反馈板块反馈报错发帖,您的支持,是我们发展的最大动力;投诉建议

    回复

    使用道具 举报

    您需要登录后才可以回帖 登录 | 立即注册 微信登录

    本版积分规则

    关注1

    粉丝9

    帖子38312

    发布主题
    阅读排行更多+
    关闭

    站长推荐上一条 /1 下一条

    活动提示

    双11活动通知:

    赞助永久VIP会员,赠送希捷/西部机械硬盘或者百度网盘SVIP一年(充值到你网盘帐号)+5000GB HIRES资源活动开启通知。

    地址:https://www.maomicd.com/huodong/

    我知道了
    收藏帖子 返回列表 这是一个自定义按钮
    音乐分享,音乐下载。
    微信公众号
    微信号:maomiyinyue
    意见反馈:admin@maomicd.com

    加入我们的官方QQ群和微信群

    Powered by Discuz! X3.4 Archiver|手机版|小黑屋|猫咪音乐网 ( 苏ICP备20015413号 )|( 苏公网安备 32030502000272号) 繁體

    JS of wanmeiff.com and vcpic.com Please keep this copyright information, respect of, thank you!JS of wanmeiff.com and vcpic.com Please keep this copyright information, respect of, thank you!

    GMT+8, 2020-12-2 10:32