请选择 进入手机版 | 继续访问电脑版

自购原抓音乐圈:只有自购、合购、原抓级高解析(hires、sacd、dsd)等音乐资源分享!【点我打开
广告

[流行音乐] [TR24][OF] Ace of Base - Da Capo (Remastered) - 2002/2015 (Pop, Eurodance)

[复制链接]
10086 发表于 2020-9-24 12:28:00 | 显示全部楼层 |阅读模式 打印 上一主题 下一主题
Ace of Base
Da Capo
Год издания/переиздания диска: 2002/2015
Жанр: Pop, Eurodance
Издатель (лейбл): Playground Music
Продолжительность: 00:45:28
Наличие сканов: Sleeve


01. Unspeakable (3:15)
02. Beautiful Morning (3:01)
03. Remember the Words (3:45)
04. Da Capo (3:13)
05. World Down Under (3:34)
06. Ordinary Day (3:26)
07. Wonderful Life (4:16)
08. Show Me Love (3:45)
09. What's the Name of the Game (3:04)
10. Change With the Light (3:38)
11. Hey Darling (3:18)
12. The Juvenile (3:46)
13. Da Capo (Alternate Version Bonus Track) (3:27)
Контейнер: FLAC (*.flac)
Тип рипа: tracks
Разрядность: 24bit / 44.1kHz
Количество каналов: 2.0

Отчёты

Динамический диапазон

foobar2000 1.2.2 / Dynamic Range Meter 1.1.1
log date: 2015-04-24 19:14:27
--------------------------------------------------------------------------------
Analyzed: Ace Of Base / Da Capo
--------------------------------------------------------------------------------
DR         Peak         RMS     Duration Track
--------------------------------------------------------------------------------
DR6       -0.65 dB    -7.83 dB      3:15 ?-Unspeakable
DR6       -0.60 dB    -8.15 dB      3:01 ?-Beautiful Morning
DR6       -0.78 dB    -8.53 dB      3:45 ?-Remember the Words
DR5       -0.66 dB    -6.42 dB      3:13 ?-Da Capo
DR5       -0.63 dB    -7.66 dB      3:34 ?-World Down Under
DR5       -0.69 dB    -8.51 dB      3:26 ?-Ordinary Day
DR5       -0.87 dB    -6.91 dB      4:16 ?-Wonderful Life
DR6       -0.60 dB    -8.09 dB      3:45 ?-Show Me Love
DR6       -0.65 dB    -7.66 dB      3:04 ?-What's the Name of the Game
DR7       -0.56 dB    -9.12 dB      3:38 ?-Change With the Light
DR5       -0.59 dB    -7.10 dB      3:18 ?-Hey Darling
DR6       -0.73 dB    -9.75 dB      3:46 ?-The Juvenile
DR5       -0.65 dB    -7.12 dB      3:27 ?-Da Capo
--------------------------------------------------------------------------------
Number of tracks:  13
Official DR value: DR6
Samplerate:        44100 Hz
Channels:          2
Bits per sample:   24
Bitrate:           1775 kbps
Codec:             FLAC
================================================================================


Скриншот спектра частот




Доп. информация
При скачивании, если необходимо, переименуйте папку, в которой будет находиться альбомБольшая просьба к скачавшим поддерживать раздачу! Помогайте другим, ведь вам тоже может понадобиться помощь!Не забываем говорить "Спасибо"!Комментарии приветствуются!
Ace of Base Hi-Res                                                                                                                                                               
                       
                       
                       
                       
                       
                                Download
                                                               
                                       
游客,本主题需向作者支付 9金币 才能浏览,金币充值, 免回复、免金币,直接查看内容请开通VIP购买主题

                                               
  • 566.7 MB
                                                                                           
  • 温馨提示

    记得善用社区搜索功能,那里可能会有你想要的资源;论坛站内搜索

    如果你有什么需要的资源可以去资源求档发帖,求助社区的网友,我们会在第一时间给你回复哦;资源求档

    对于本社区网盘链接失效密码错误各种报错请在反馈板块反馈报错发帖,您的支持,是我们发展的最大动力;投诉建议

    回复

    使用道具 举报

    您需要登录后才可以回帖 登录 | 立即注册 微信登录

    本版积分规则

    关注0

    粉丝2

    帖子23784

    发布主题
    阅读排行更多+
    关闭

    站长推荐上一条 /1 下一条

    活动提示

    当前活动通知:

    赞助永久VIP会员,赠送希捷/西部机械硬盘+5000GB HIRES资源活动开启通知。

    地址:https://www.maomicd.com/thread-95958-1-1.html

    我知道了
    收藏帖子 返回列表 这是一个自定义按钮
    音乐分享,音乐下载。
    微信公众号
    微信号:maomiyinyue
    意见反馈:admin@maomicd.com

    加入我们的官方QQ群

    Powered by Discuz! X3.4 Archiver|手机版|小黑屋|猫咪音乐网 ( 苏ICP备20015413号 )|( 苏公网安备 32030502000272号) 繁體

    JS of wanmeiff.com and vcpic.com Please keep this copyright information, respect of, thank you!JS of wanmeiff.com and vcpic.com Please keep this copyright information, respect of, thank you!

    GMT+8, 2020-10-25 04:08